<?xml version="1.0" standalone="no"?>
<!DOCTYPE svg PUBLIC "-//W3C//DTD SVG 1.1//EN" "http://www.w3.org/Graphics/SVG/1.1/DTD/svg11.dtd" >
<svg xmlns="http://www.w3.org/2000/svg">
<metadata></metadata>
<defs>
<font id="neuton_cursiveregular" horiz-adv-x="1273" >
<font-face units-per-em="2048" ascent="1638" descent="-410" />
<missing-glyph horiz-adv-x="411" />
<glyph horiz-adv-x="0" />
<glyph unicode="&#xd;" horiz-adv-x="682" />
<glyph unicode=" "  horiz-adv-x="411" />
<glyph unicode="&#x09;" horiz-adv-x="411" />
<glyph unicode="&#xa0;" horiz-adv-x="411" />
<glyph horiz-adv-x="411" />
<glyph unicode="!" horiz-adv-x="341" d="M17 71q0 6 7 37q8 36 40 68q35 35 70 36q39 2 54 -6q19 -9 32 -28q14 -19 18 -35q4 -15 4 -23q0 -11 -8 -47q-9 -40 -43 -74t-80 -34q-39 3 -63 27q-22 22 -27 50q-4 24 -4 29zM59 1257q46 33 108 33t101 -36q38 -35 50 -102q6 -26 5 -67q-3 -135 -54 -386l-75 -361 l-71 -13l12 170q7 92 7 316v63q-8 225 -83 383z" />
<glyph unicode="&#x22;" horiz-adv-x="442" d="M28 1308q10 3 58 2q59 -2 125 -18l-85 -386q-36 -12 -75 -11h-21zM237 1308q10 3 59 2q57 -2 124 -18l-85 -386q-36 -12 -75 -11h-20z" />
<glyph unicode="#" horiz-adv-x="895" d="M17 355l41 100h158l63 207h-158l39 98h152l57 171l101 10l-57 -181h200l54 171l103 9l-57 -180h165l-39 -98h-158l-62 -207h156l-39 -100h-152l-51 -181l-105 -7l56 188h-200l-51 -181l-105 -7l55 188h-166zM317 455h199l65 207h-201z" />
<glyph unicode="$" horiz-adv-x="877" d="M15 232q0 25 8 54q27 79 104 109q33 16 73 16q24 0 42 -10q-31 -85 -28 -145q0 -93 95 -143q21 -13 53 -25l74 437q-125 101 -187 177q-84 106 -84 204v22q6 59 35 115q52 100 139 157q88 58 188 73l25 144l133 9l-25 -155q121 -22 202 -93l-65 -346l-88 19l-7 250 q-34 49 -93 70l-73 -430q118 -99 164 -141q102 -101 119 -224q2 -6 1 -30q0 -129 -94 -226q-76 -81 -195 -120q-34 -12 -90 -19l-23 -138l-129 -10l25 148q-107 12 -194 68q-46 32 -72 74q-26 43 -31 84q-2 4 -2 25zM356 1003q0 -87 60 -153q14 -15 63 -62l66 396h-4 q-65 0 -123 -46q-56 -44 -62 -122v-13zM425 80q65 5 112 36q81 52 81 146q0 93 -65 161q-19 23 -60 56z" />
<glyph unicode="%" horiz-adv-x="1063" d="M18 686q0 124 84 207q83 82 191 82q109 0 160 -55q51 -56 51 -150q0 -16 -2 -43q-15 -118 -89 -186q-76 -70 -182 -70q-107 0 -160 59t-53 156zM44 -31l815 993l136 9l-809 -994zM136 699q0 -135 111 -137q122 0 140 171q2 12 2 21q0 61 -30 94q-32 35 -85 35 q-140 0 -138 -184zM558 191q0 121 88 203t194 82q105 0 156 -55q50 -54 50 -147q0 -9 -4 -41q-14 -117 -89 -186q-77 -71 -183 -71t-159 61t-53 154zM676 202q0 -134 112 -134q121 0 139 152q2 6 2 34q0 62 -31 96q-32 35 -84 35q-118 0 -136 -145q-2 -6 -2 -38z" />
<glyph unicode="&#x26;" horiz-adv-x="1130" d="M17 270q0 56 24 108.5t67.5 97t95 81t115.5 69.5q-82 147 -82 246q0 89 49.5 169t137 129.5t189.5 49.5q114 0 186 -65t72 -170q0 -53 -20.5 -102.5t-53.5 -87t-78 -70t-90 -54.5t-94 -38l286 -468q107 87 107 235q0 70 -43 129.5t-122 87.5q57 84 156 84q81 0 137 -72 t56 -169q0 -122 -65.5 -218.5t-177.5 -163.5q44 -89 44 -157q0 -56 -28 -103t-73.5 -76.5t-100 -46.5t-112 -15.5t-105.5 19.5l-7 36q52 9 87.5 19t72.5 27t56 44t19 63q0 30 -6.5 52t-24.5 58q-155 -50 -311 -50q-74 0 -136.5 17t-114.5 53.5t-82 100.5t-30 151zM229 309 q0 -113 80.5 -175t202.5 -62q68 0 131 14l-280 465q-79 -53 -106.5 -109.5t-27.5 -132.5zM410 971q0 -78 19 -135t67 -138q78 25 135 98t57 137q0 93 -40.5 143.5t-103.5 50.5q-58 0 -96 -48t-38 -108zM517 627q4 -6 4 -4t-1 5q-1 0 -3 -1z" />
<glyph unicode="'" horiz-adv-x="233" d="M28 1308q10 3 58 2q59 -2 125 -18l-85 -386q-36 -12 -75 -11h-21z" />
<glyph unicode="(" horiz-adv-x="526" d="M17 287q0 82 13 190q14 116 58 247q44 129 94 216q45 77 113 158q67 80 107 114q32 28 65 54l42 -67q-242 -269 -300 -739q-10 -76 -12 -178q3 -314 140 -602l-77 -58q-241 274 -243 665z" />
<glyph unicode=")" horiz-adv-x="544" d="M17 -320q333 455 335 1005q0 301 -132 514l58 67q249 -233 248 -645q0 -229 -77 -451q-48 -133 -94 -215q-45 -80 -104 -152q-65 -78 -85 -101q-33 -37 -87 -80z" />
<glyph unicode="*" horiz-adv-x="751" d="M19 964l55 127l267 -114l-37 315l136 -13l-26 -291l289 131l29 -130l-285 -68l219 -229l-118 -69l-153 247l-155 -277l-102 92l193 219z" />
<glyph unicode="+" horiz-adv-x="608" d="M20 413l25 101h209l30 233l106 -13l-25 -220h223l-26 -101h-209l-28 -239l-109 12l28 227h-224z" />
<glyph unicode="," horiz-adv-x="378" d="M23 -251q90 47 126 102q37 56 37 110q0 2 -6 35q-7 37 -35 68q-30 33 -67 52q15 55 54 82q41 29 80 29h15q78 -9 111 -100q13 -32 15 -70q0 -150 -149 -266q-64 -52 -149 -94z" />
<glyph unicode="-" horiz-adv-x="460" d="M24 390l11 99l400 18l-12 -99z" />
<glyph unicode="." horiz-adv-x="274" d="M24 71q0 6 7 37q8 36 40 68q35 35 70 36q39 2 54 -6q19 -9 32 -28q14 -19 18 -35q4 -15 4 -23q0 -11 -8 -47q-9 -40 -43 -74t-80 -34q-39 3 -63 27q-22 22 -27 50q-4 24 -4 29z" />
<glyph unicode="/" horiz-adv-x="634" d="M17 -367l466 1612l134 7l-469 -1609z" />
<glyph unicode="0" horiz-adv-x="873" d="M18 548q0 71 20 154q41 176 155 309q66 77 137 112q70 35 151 35h17q99 -6 171 -66q75 -63 121 -161q65 -138 65 -313q0 -18 -4 -75q-18 -213 -120 -362q-56 -81 -131 -136q-73 -53 -133 -61q-56 -7 -64 -7q-94 0 -179 53q-84 53 -137 161q-52 107 -64 246q-5 36 -5 111z M178 653q0 -215 95 -402q78 -150 200 -150q93 0 142 72q32 46 57 144q24 92 24 200q0 158 -67 312q-67 153 -166 193q-33 12 -52 14q-12 1 -46 -4q-118 -26 -158 -168q-30 -96 -29 -211z" />
<glyph unicode="1" horiz-adv-x="551" d="M17 935q0 4 4 24q156 11 283 94q53 35 103 85l126 16l-99 -1162l-220 -6q69 395 88 530q4 31 13 97.5t13 93.5q3 16 21 150q2 12 10 75.5t14 103.5l-9 -4q-40 -111 -83 -153q-42 -41 -81 -53q-34 -11 -63 -11q-25 0 -56 15q-62 30 -64 105z" />
<glyph unicode="2" horiz-adv-x="871" d="M17 5l11 96l181 110q179 109 247 170q73 66 109 118t64 122q28 69 31 165v11q0 99 -42 177t-116 104q-27 8 -66 8q-35 0 -81 -32q-41 -28 -62 -81q-19 -47 -19 -88q0 -132 116 -221q-46 -57 -102 -57q-108 0 -150 95q-16 33 -16 100q0 65 56 159q56 93 147 153 q93 61 206 64h14q133 0 214 -84q93 -93 95 -249q-2 -221 -216 -421q-89 -83 -293 -224l-113 -77v-10l201 8q35 0 59 2t47 2q105 9 156 87q19 27 43 84l33 80l74 -27q0 -1 -2.5 -17.5t-7.5 -50t-11 -71.5q-21 -133 -49 -226h-155q-254 3 -440 13z" />
<glyph unicode="3" horiz-adv-x="804" d="M17 167q0 77 52.5 121.5t127.5 43.5q-24 -110 24 -189.5t145 -79.5q96 0 160 57t64 163q0 127 -84 196t-190 51l6 59q42 21 66.5 34t64 37.5t63.5 48t48.5 55t36.5 70t12 81.5q0 83 -40.5 133.5t-111.5 50.5q-66 0 -110 -35.5t-44 -94.5q0 -90 74 -154q-31 -58 -93 -58 q-2 -2 -7 -2q-51 0 -86 39.5t-35 93.5q0 82 61 150.5t148 104.5t174 36q116 0 179.5 -55.5t63.5 -162.5q0 -203 -265 -336v-4q103 0 177.5 -69.5t74.5 -179.5q0 -90 -42 -167t-111 -127t-156 -78t-178 -28q-107 0 -187 53.5t-82 141.5z" />
<glyph unicode="4" horiz-adv-x="867" d="M17 323l189 187q132 131 178 185q151 179 180 373q8 56 7 116q75 14 124.5 -27t49.5 -111q0 -33 -15 -72.5t-47.5 -85t-64 -84.5t-84.5 -93.5t-88 -88t-94 -90.5l-190 -179l346 7l21 225l170 117l-44 -337l195 4l-33 -136l-171 8l-19 -227l-158 -26l31 258l-468 21z" />
<glyph unicode="5" horiz-adv-x="835" d="M17 184q0 8 4 32q13 50 47 87q36 38 96 43q13 -63 16 -77q49 -161 178 -188q34 -3 37 -3q59 0 113 33t67 82q13 48 13 74q0 31 -2 44q-4 25 -24 72q-34 87 -102 141q-66 53 -153 68q-47 10 -99 10l-23 18l135 495q16 -2 107 -2q225 0 381 47q10 -29 10 -56v-12 q-14 -141 -201 -141q-94 0 -172 11t-93 11l-53 -223l8 -3q9 0 13 1h16q173 0 291 -107q113 -111 115 -261q0 -148 -95 -266q-71 -86 -178 -119q-68 -26 -130 -26q-60 0 -66 1q-96 6 -161 48q-93 58 -95 166z" />
<glyph unicode="6" horiz-adv-x="798" d="M18 344q0 46 2 54q9 151 55 277q104 286 330 429q101 62 184 60q78 0 127 -40q65 -56 64 -129q0 -46 -23 -83q-25 -40 -71 -59q-40 103 -115 150q-33 20 -68 26h-16q-88 0 -151 -84q-62 -83 -94 -193q-31 -106 -37 -148q43 56 113 86q67 29 145 27q77 -2 132 -35 q58 -35 89 -88q30 -51 36 -107q6 -54 6 -60q0 -83 -39 -178q-38 -93 -108 -158q-117 -105 -252 -107q-26 0 -31 2q-161 14 -240 172q-36 80 -38 186zM189 388q9 -187 74 -259q51 -60 112 -59q5 0 9 2h7q42 6 75 32q66 60 81 206q6 34 4 75q0 74 -27 129q-13 30 -43 52 q-45 33 -105 35q-58 1 -110 -17t-72 -50q-5 -45 -5 -111v-35z" />
<glyph unicode="7" horiz-adv-x="858" d="M17 851l34 291q11 1 175 11q136 8 260 8l355 -13l-3 -58l-234 -278q-124 -149 -184 -275q-58 -123 -58 -255q0 -131 93 -233q-27 -34 -77 -52q-14 -7 -39 -7q-23 0 -62 12q-41 13 -74 56t-39 95q-6 49 -6 75q0 60 65 199q70 134 207 311l220 284q-195 -7 -322 -17 q-159 -13 -170 -15l-66 -160z" />
<glyph unicode="8" horiz-adv-x="749" d="M17 216q0 24 2 26q6 68 37 121q32 52 99 129q61 61 118 107l-18 19q-108 123 -110 246q0 22 1 26q16 136 154 227q92 58 193 58t170 -69q68 -68 68 -165q0 -26 -1 -30q-9 -90 -68 -171q-60 -83 -136 -132q94 -94 130 -165q38 -74 38 -147q0 -26 -2 -31q-6 -58 -34 -105 q-30 -51 -76 -85q-82 -68 -204 -93q-36 -8 -87 -8q-168 0 -243 125q-31 49 -31 117zM190 269q0 -125 88 -180q38 -25 82 -28h4q70 0 116 49t46 136q0 85 -92 191q-25 33 -118 120q-123 -138 -126 -271v-17zM300 931q6 -81 68 -156q54 -67 112 -122q91 81 90 229 q0 81 -26 130q-27 52 -60 65q-32 13 -56 13l-21 -1q-36 -6 -61 -30q-25 -23 -36 -62q-10 -34 -10 -56v-10z" />
<glyph unicode="9" horiz-adv-x="741" d="M17 153q0 7 4 31q18 69 79 100q30 -53 77 -93q76 -51 130 -50q22 0 25 1q91 9 149 100q41 69 62 206q0 2 1.5 13t4 40t5.5 56q-37 -52 -100 -85q-61 -32 -128 -38q-5 -2 -48 -2t-99 28q-59 29 -89 74q-54 74 -53 192q0 152 81 279q50 77 124 125q72 47 159 50h9 q77 0 143 -37q64 -36 105 -104q57 -94 65 -251v-49q0 -162 -37 -294q-37 -133 -131 -257q-157 -202 -335 -202h-7q-50 0 -96 20q-43 19 -72 58q-28 38 -28 89zM188 794q0 -168 100 -220q37 -19 81 -19q5 0 46 6q44 7 74 22q40 21 46 26q11 10 24 27v45q0 152 -33 252 q-49 157 -168 157q-147 0 -168 -260v-18q-2 -6 -2 -18z" />
<glyph unicode=":" horiz-adv-x="329" d="M20 68q0 53 38 91q35 35 67 37t45 -5q15 -7 32 -26q17 -24 19 -45q1 -17 -3 -43q-10 -40 -41 -72q-32 -33 -73 -33q-36 3 -56 25q-31 31 -28 71zM109 708q0 15 5 42q6 33 38 65q30 30 73 32q40 2 63 -27q21 -27 21 -65q0 -2 -3 -29q-11 -44 -42 -73q-29 -28 -69 -28 t-60 21q-18 19 -24 50q-2 2 -2 12z" />
<glyph unicode=";" horiz-adv-x="410" d="M19 -230q50 31 67 43q13 10 48 53q32 40 32 94q0 2 -6 31t-33 59q-28 31 -58 51q12 49 58 80q34 19 65 19h10q70 -9 100 -91q12 -37 14 -58q1 -12 -6 -62q-6 -41 -41 -92q-72 -103 -221 -177zM189 719q0 54 37 91q35 35 68 37q29 1 44 -6q19 -9 33 -26q17 -24 19 -45 q1 -15 -2 -44q-12 -45 -41 -73t-69 -28q-39 0 -60 21q-30 32 -29 73z" />
<glyph unicode="&#x3c;" horiz-adv-x="693" d="M17 419l7 27l608 506l44 -69l-424 -437l303 -459l-73 -68z" />
<glyph unicode="=" horiz-adv-x="710" d="M20 311l27 105h603l-28 -105h-602zM60 546l28 105h601l-28 -105h-601z" />
<glyph unicode="&#x3e;" horiz-adv-x="711" d="M17 -13l445 459l-285 437l66 69l450 -506l-2 -27l-624 -500z" />
<glyph unicode="?" horiz-adv-x="585" d="M17 71q0 6 7 37q8 36 40 68q35 35 70 36q39 2 54 -6q19 -9 32 -28q14 -19 18 -35q4 -15 4 -23q0 -11 -8 -47q-9 -40 -43 -74t-80 -34q-39 3 -63 27q-22 22 -27 50q-4 24 -4 29zM64 1125q0 28 2 31q12 73 93 113q46 23 102 23h21q90 -6 155 -58q66 -53 98 -133 q32 -81 32 -144q0 -65 -7 -93q-20 -95 -100 -165q-50 -43 -127 -71q-53 -21 -66 -34q-20 -20 -30 -32q-25 -27 -27 -90q0 -15 2 -21v-21q0 -9 5 -45l-78 -16q-34 86 -43 135l-5 51q0 61 34 107q33 45 69 68q29 19 91 45q60 25 85 41q27 17 57 50q28 31 33 75q0 6 1 10v8 q0 81 -73 133q-29 19 -50 22q-20 3 -21 4h-9q-54 0 -108 -25q-59 -27 -81 -48q-17 8 -29 24q-26 29 -26 56z" />
<glyph unicode="@" horiz-adv-x="1298" d="M17 331q2 196 95 361q93 164 262 263q166 97 373 97h9q147 -5 266 -61q120 -57 189 -163q67 -104 69 -234v-11q0 -128 -62 -243t-169 -192q-108 -78 -231 -96q-5 -2 -26 -1l-33 3q-30 7 -47 29q-17 21 -17 76q0 52 30 146l-12 2q-38 -80 -73 -130q-36 -50 -86 -84 q-50 -33 -101 -33q-52 0 -87 44q-34 42 -40 100q-2 6 -2 45q0 42 23 146q45 205 205 343q67 52 124 52q56 0 109 -57l14 -2l6 71l19 7l105 -31l-61 -315q-23 -165 -24 -167l-3 -43q-3 -52 -3 -54v-11q0 -6 6 -12q8 -8 14 -8q8 0 10 2h8q29 4 33 5q3 1 9.5 2t9.5 2q12 3 13 4 q2 1 11 4q11 4 13 5q6 4 11 7q10 6 13 9q2 2 14 10q78 65 110 144q31 77 31 191q2 251 -208 360q-100 49 -215 48q-157 0 -286 -85t-193 -225q-68 -142 -68 -296t63 -265q62 -109 179 -168q116 -59 258 -59h21q70 2 142 20q79 20 133 50q68 35 81 46l36 -54l-9 -5 q-90 -87 -214 -119q-121 -31 -204 -31h-14q-159 0 -303 60q-141 59 -228 173q-99 136 -98 328zM464 307q0 -38 4 -63q4 -26 8 -34q3 -6 8 -11l6 -6l1 -1q1 -1 2.5 -2t3.5 -2q7 -7 25 -7q19 0 42 17q24 18 55 55q32 38 84 145q52 106 70 204q-61 91 -123 91h-7q-30 0 -60 -20 q-31 -21 -47 -48q-25 -36 -49 -140q-23 -98 -23 -165v-13z" />
<glyph unicode="A" horiz-adv-x="1281" d="M20 101q95 37 178.5 103t148.5 155.5t118.5 189t96.5 220t74 232t59 240.5l180 30l208 -1139l178 -51l-23 -81h-576l23 72l198 36l-52 324l-291 14q-11 -44 -32.5 -101.5t-55.5 -124t-73 -121t-88.5 -91t-97.5 -36.5q-59 0 -107 38t-66 91zM571 536l248 -31l-88 557h-4 q-41 -201 -156 -526z" />
<glyph unicode="B" horiz-adv-x="1165" d="M158 1128l19 77q264 76 523 76q124 0 220 -31t152.5 -94.5t56.5 -150.5q0 -133 -76 -225t-172 -121v-16q121 -23 191.5 -86t70.5 -171q0 -65 -20 -120t-55 -95.5t-84 -73t-104 -53.5t-118.5 -35t-125.5 -19.5t-126 -5.5q-138 0 -274 26l156 1111zM437 121q95 -23 172 -23 q327 0 327 240q0 38 -13.5 74.5t-40.5 70t-73.5 57t-107.5 31.5l-201 24zM511 668l282 -16q143 89 143 268q0 130 -108 208q-93 68 -209 68q-18 0 -37 -2z" />
<glyph unicode="C" horiz-adv-x="909" d="M20 496q0 91 25 183.5t70.5 177.5t114 159t151.5 128.5t186.5 86t215.5 31.5q79 0 160 -16l-70 -431l-96 13l-32 273q-72 16 -133 16q-360 0 -364 -536q0 -93 12.5 -170.5t38.5 -141t71 -99t105 -35.5q93 0 217.5 71t188.5 164l62 -42q-32 -58 -90.5 -119.5 t-131.5 -115.5t-162 -88.5t-171 -34.5q-94 0 -167 45t-115.5 121.5t-64 167.5t-21.5 192z" />
<glyph unicode="D" horiz-adv-x="1321" d="M99 1105l21 71q128 46 272.5 72.5t282.5 26.5q98 0 184 -16.5t163.5 -55.5t132.5 -98t87.5 -149t32.5 -204q0 -172 -55.5 -306.5t-153.5 -222t-238 -141.5q-140 -56 -302 -74q-105 -12 -222 -12q-63 0 -130 4l142 1068zM386 106q164 0 288 31.5t214.5 98t137 176 t46.5 260.5q0 156 -70 274q-71 118 -199 178q-105 49 -233 49q-28 0 -57 -2z" />
<glyph unicode="E" horiz-adv-x="1229" d="M20 -3l23 83l218 54l125 960l-227 23l20 75q97 20 333 41q212 19 400 19l297 -6l-80 -411l-86 13l-32 263l-28 6q-131 26 -328 26h-41h-33l-55 -463l455 34l-34 -145l-433 9l-62 -480l217 10q193 11 251 24q32 51 80 160q42 96 60 159l87 -11v-6q0 -132 -21 -252 q-22 -123 -56 -182q-552 3 -618 3z" />
<glyph unicode="F" horiz-adv-x="1229" d="M20 -2l23 82l218 54l125 960l-227 23l20 75q95 20 333 41q210 19 400 19l297 -6l-80 -428l-95 14l-28 270l-32 5q-131 22 -331 35l-62 1l-55 -506l455 33l-34 -151l-435 18l-54 -428l250 -29l-20 -82h-668z" />
<glyph unicode="G" horiz-adv-x="1144" d="M20 444q0 176 59 327t165 260t261 171t340 62q98 0 203 -18l-80 -411l-86 13l-32 257q-92 20 -170 21h-5q-75 0 -130 -15q-57 -15 -103 -46.5t-76 -68t-52.5 -86.5t-34.5 -95t-19 -100.5t-9 -95.5t-2 -87q0 -190 48.5 -307.5t142.5 -117.5q95 0 209 103t171 238v15 l-226 -7l19 76q180 47 354 47q77 0 157 -7l-20 -75l-115 -32l-21 -166l18 -276l-3 -17l-183 -38l24 193l19 179h-17q-38 -81 -79.5 -144t-96.5 -117t-124.5 -83t-149.5 -29q-170 0 -263 129.5t-93 347.5z" />
<glyph unicode="H" horiz-adv-x="1591" d="M20 0l18 78l223 51l123 961l-226 33l19 76q158 34 263 40q99 6 185 6t173 -6l-20 -75l-199 -22l-55 -462l585 21l51 412l-228 9l18 75q235 46 469 48q78 0 152 -6l-18 -76l-205 -54l-116 -980l211 -48l-21 -81h-627l19 78l222 35l61 487l-588 -33l-57 -461l211 -25 l-24 -81h-619z" />
<glyph unicode="I" horiz-adv-x="818" d="M20 0l18 78l223 51l123 961l-226 33l19 76q224 47 464 47q70 0 157 -7l-20 -75l-199 -22l-127 -1036l218 -25l-24 -81h-626z" />
<glyph unicode="J" horiz-adv-x="1022" d="M20 -208q0 72 51 135q81 -60 149.5 -90.5t138.5 -30.5q50 0 65 46q42 152 109 737l57 498l-225 30l16 77q159 38 339 49q59 5 142 5q82 0 140 -5l-19 -77l-195 -24l-95 -757q-19 -153 -56 -310t-89 -250q-68 -109 -152 -154.5t-184 -45.5q-91 0 -141.5 48t-50.5 119z" />
<glyph unicode="K" horiz-adv-x="1189" d="M20 0l18 78l223 51l123 961l-226 33l19 76q85 21 174 33q87 11 179 14q26 1 52 1q87 0 176 -8l-20 -78l-159 -22l-127 -1029l178 -25l-24 -85h-586zM551 587l3 44q114 41 205 112q75 58 124 130q43 64 77 154q39 106 66 244h10q43 0 82 -22q52 -31 72 -89q8 -25 8 -52 q0 -14 -2 -28q-5 -38 -24 -78q-38 -78 -137 -161q-107 -91 -295 -202l235 -395q64 -108 96 -146q42 -50 91 -73q41 -20 114 -29l34 -4l-22 -80q-75 -33 -155 -33h-5q-58 1 -110 22q-72 28 -124 89q-36 42 -80 132l-193 398z" />
<glyph unicode="L" horiz-adv-x="1169" d="M20 -3l23 83l218 54l125 960l-227 23l20 75q177 54 438 54q70 0 139 -5t90 -5l-14 -81l-247 -23l-133 -1026l217 10q157 10 236 23q62 66 150 331l92 -14q0 -15 2 -22v-26q0 -106 -23 -229t-56 -179q-552 3 -618 3z" />
<glyph unicode="M" horiz-adv-x="1723" d="M20 94q114 51 178 139q117 166 141 631q2 66 4 207l-227 54l23 76q233 44 441 47l55 -193l184 -712l393 725l93 163q10 2 89 9q71 6 146 6q79 0 163 -10l-23 -78l-217 -57l-71 -814q-3 -52 -3 -60v-20q-2 -6 -2 -21q0 -52 32 -52q1 0 22 6q19 5 50 38t82 101l48 -35 q-39 -149 -172 -231q-68 -41 -137 -42h-4q-66 0 -95.5 29t-29.5 89q0 10 2 14v11q3 78 23 229l82 656q-114 -278 -225 -507q-105 -217 -186 -346q-2 -2 -10.5 -15t-12.5 -18l-40 -61l-128 -19l-241 966h-3l-19 -513q-8 -174 -23 -250q-17 -83 -65 -158q-70 -107 -162 -109 q-41 0 -75 19q-33 19 -55 53q-18 28 -25 53z" />
<glyph unicode="N" horiz-adv-x="1533" d="M20 103q129 59 189 139q43 57 73 153t46 222t23.5 224t13.5 230l-226 54l22 76q125 25 207.5 34t201.5 11l88 -168l435 -804l71 832l-227 16l20 75q129 28 212 38t201 10q71 0 143 -6l-21 -76l-205 -54l-104 -1107l-160 -33l-555 1030h-3l-19 -513q-25 -517 -283 -517 q-88 9 -125 80q-10 23 -18 54z" />
<glyph unicode="O" horiz-adv-x="1106" d="M20 505q0 152 42.5 290t120 245.5t197 171t263.5 63.5q138 0 240.5 -74t152.5 -193t50 -264q-3 -221 -105 -419q-42 -80 -89 -140.5t-109 -110.5t-142.5 -76t-176.5 -26q-134 0 -237 75t-155 195t-52 263zM229 639q0 -76 11.5 -148t38 -140t65.5 -119t97.5 -81.5 t130.5 -30.5q77 0 137.5 43.5t96.5 116.5t54.5 161t18.5 184q0 77 -13 149t-41 137t-69.5 113.5t-103 77t-135.5 28.5q-78 0 -135.5 -42t-90 -114t-47.5 -156t-15 -179z" />
<glyph unicode="P" horiz-adv-x="1130" d="M20 0l18 78l216 54l123 934l-216 23l16 69q293 102 562 104q209 0 320 -90t111 -259q0 -173 -157 -303q-78 -63 -193 -104t-262 -55l-6 83q69 7 113 19q149 35 230 117t81 211q0 128 -89 219t-244 91q-34 0 -58 -5l-134 -1070l228 -32l-24 -84h-635z" />
<glyph unicode="Q" horiz-adv-x="1116" d="M20 534q0 354 230 575q98 93 223 137q75 29 164 29h21q215 -12 323 -190q91 -151 91 -349q0 -87 -20 -181q-39 -191 -138 -332q-100 -142 -255 -209q13 -103 93 -169q58 -47 127 -47h5q41 0 92 19q55 21 98 49l22 -82q-112 -151 -285 -169h-15q-4 -1 -9 -1h-6 q-115 0 -181 72t-75 194v17q-3 6 -1 29q3 41 5 53q-25 -5 -73 -5q-42 0 -86 12q-135 33 -233 149q-117 142 -117 391v8zM221 651q0 -231 64 -358q52 -102 146 -149q52 -28 93 -28t46 2q76 9 133 50q103 76 142 227q26 85 26 207q0 8 -3 81q-21 284 -172 395q-68 54 -156 54 h-6h-3q-110 0 -187 -80q-123 -129 -123 -389v-12z" />
<glyph unicode="R" horiz-adv-x="1263" d="M20 0l18 75l214 52l125 938l-221 13l14 77q100 34 266 69q167 35 243 35q80 0 88 -2q269 -19 346 -209q18 -45 17 -81q0 -113 -68 -202q-51 -63 -132 -111q-87 -51 -163 -80v-3l147 -246q47 -83 77 -119t70 -62q37 -24 103 -38l79 -15l-7 -60q-82 -49 -172 -49 q-154 0 -248 126q-24 32 -66 110l-125 235q-6 10 -13.5 21t-11 17t-5.5 9l-37 46l-17 21l11 30l78 18q172 35 239 124q27 36 44 82q14 39 14 87q0 109 -72 190t-183 81q-55 0 -91 -11l-145 -1062l184 -34l-19 -72h-581z" />
<glyph unicode="S" horiz-adv-x="927" d="M20 232q0 100 72 154q49 36 100 37q24 0 50 -8q-10 -47 -14 -89q-1 -15 -1 -31q1 -29 5 -59q6 -46 25.5 -79t61.5 -55t104 -22q82 0 141 54t59 128q0 54 -47 115t-113.5 119t-133 120t-113.5 138t-47 152q0 103 62 189.5t159.5 134.5t202.5 48q182 0 314 -100l-105 -346 l-88 19l-7 250q-20 33 -64 58t-95 25q-77 0 -132 -51t-55 -128q0 -43 25.5 -90t66.5 -90t90.5 -88t99 -91.5t90.5 -93t66.5 -100t25.5 -104.5q0 -83 -38.5 -154t-102 -118t-142.5 -73.5t-161 -26.5q-89 0 -169 26.5t-136 86.5t-56 143z" />
<glyph unicode="T" horiz-adv-x="1128" d="M20 832v392q265 23 612 28h111l365 -6l-81 -428l-95 14l-30 285q-134 23 -254 26l-124 -1034l250 -29l-18 -82h-669l23 82l217 54l119 989q-123 17 -168 17h-5q-11 0 -26 -0.5t-23.5 -0.5t-12.5 -1l-96 -320z" />
<glyph unicode="U" horiz-adv-x="1453" d="M20 1123l22 78q244 44 492 44l124 -2l-18 -77l-199 -28l-48 -393q0 -10 -2 -24q-1 -4 -3.5 -29t-5.5 -45q-4 -21 -6 -51l-2 -30q-2 -19 -2 -79q0 -54 4 -83q6 -42 14 -75q23 -83 94 -141q76 -65 179 -65q104 0 175 47q69 46 107 121q37 74 61 243l74 577l-225 9l18 77 q209 46 448 46q23 0 112 -4l-20 -76l-207 -67l-85 -579q-34 -231 -104 -339q-39 -59 -80 -93q-39 -32 -105 -66q-112 -53 -231 -53h-10q-193 9 -299 117q-121 121 -122 342q0 85 26 277l46 385z" />
<glyph unicode="V" horiz-adv-x="1103" d="M20 1122l20 75q200 46 390 49l187 -1058h8q57 60 108 139q108 170 143 389q7 38 7 101q0 133 -49 241q-44 92 -103 143q63 63 147 63q120 0 179 -114q26 -48 26 -126q0 -6 -3 -62q-20 -190 -121 -415q-103 -228 -241 -405q-76 -91 -123 -137l-144 -31l-209 1107z" />
<glyph unicode="W" horiz-adv-x="1570" d="M20 1122l27 75q208 46 397 49l67 -1009h10q150 217 241 515q38 129 67 247l149 35l52 -839h8q203 215 266 514q19 98 19 179q0 160 -68 319q62 45 134 45h6h6q118 -9 142 -122q7 -28 7 -89q0 -65 -20 -149q-36 -180 -151 -375q-105 -186 -249 -355q-34 -46 -141 -159 l-142 -31l-29 649h-10q-89 -250 -211 -463q-41 -69 -94 -153l-174 -31l-92 1107z" />
<glyph unicode="X" horiz-adv-x="1325" d="M20 142v6q0 48 15 80q30 -3 64 -3l62 3q197 21 306 218q33 58 82 177l-202 448l-242 51l19 75q151 34 230 40q74 6 145 9l233 -517q23 63 43 100q43 96 112 207t123 156q75 60 151 60q51 0 92 -33t50 -79q2 -10 2 -48q0 -36 -23 -73q-39 10 -80 10l-46 -3 q-178 -24 -307 -229q-39 -67 -74 -158l128 -282q58 -126 103 -173q23 -23 51 -22q29 2 51 22q46 34 97 114l49 -34q-19 -70 -46 -113q-72 -114 -175 -153q-34 -12 -63 -12h-8q-73 0 -126 53q-26 26 -40 49q-18 29 -64 132l-138 309q-52 -141 -153 -318q-74 -126 -139 -176 q-57 -45 -119 -45h-5l-25 2q-54 9 -87 47q-44 49 -46 103z" />
<glyph unicode="Y" horiz-adv-x="1105" d="M20 1111q15 75 65 110q52 36 118 41h11q161 0 244 -176q54 -116 66 -274q2 -74 2 -99v-11v-38h16q35 151 102 298q125 287 301 287h18q57 -6 89 -45q33 -40 33 -86q0 -20 -4 -31q-64 -3 -133 -24q-78 -23 -137 -68q-70 -57 -111 -126q-38 -65 -80 -189q-44 -148 -65 -321 l-29 -253l213 -25l-21 -81h-626l19 83l221 46l39 294q10 67 10 146q0 180 -67 324q-92 190 -294 218z" />
<glyph unicode="Z" horiz-adv-x="1117" d="M20 0l5 103l835 1049l-525 -17l-75 -261l-102 26l16 348h923l-9 -77l-846 -1077l210 9q240 14 366 36q75 177 102 314l91 -13q0 -22 2 -31v-31q-3 -213 -30 -336l-10 -42h-953z" />
<glyph unicode="[" horiz-adv-x="592" d="M17 -380l203 1646h355v-91l-217 -21l-175 -1417l218 -19l-23 -96z" />
<glyph unicode="\" horiz-adv-x="430" d="M17 1283l133 -8l263 -1655l-129 8z" />
<glyph unicode="]" horiz-adv-x="595" d="M17 -378l2 96l220 19l174 1417l-213 21l23 91h355l-200 -1646z" />
<glyph unicode="^" horiz-adv-x="668" d="M20 809l333 403l53 12l242 -416l-62 -37l-233 281h-9l-278 -276z" />
<glyph unicode="_" horiz-adv-x="916" d="M28 -134l25 106h834l-24 -106h-835z" />
<glyph unicode="`" horiz-adv-x="322" d="M40 1626l114 37l128 -327l-56 -33z" />
<glyph unicode="a" horiz-adv-x="872" d="M58 225q0 98 34.5 214t92 218t143.5 170t178 68q81 0 124 -65h9q47 70 130 70l24 -19l-92 -390l-30 -238q-4 -34 -5 -59q0 -78 42 -78q34 0 77.5 52t75.5 107l41 -35q-20 -52 -36 -85t-42 -72t-54 -61.5t-69 -37.5t-91 -15q-96 0 -96 133q0 73 29 185h-13 q-52 -125 -138 -217q-85 -91 -168 -91q-41 0 -71 12.5t-48 33.5t-29 54t-14.5 67t-3.5 79zM229 288q0 -156 65 -156q72 0 167 153q60 98 98 225l15 160q-14 33 -58.5 61.5t-79.5 28.5q-56 0 -99 -50t-65 -127t-32.5 -152t-10.5 -143z" />
<glyph unicode="b" horiz-adv-x="777" d="M40 1203l11 73l279 23l15 -21l-51 -433l-50 -253h9q13 54 37 105t59 96t83.5 72.5t103.5 27.5q72 0 124 -55.5t74.5 -134.5t22.5 -168q0 -117 -33.5 -219t-94.5 -177.5t-154 -119t-206 -43.5q-145 0 -227 73l38 269l96 857zM208 153q45 -65 153 -65h10q61 0 105 34t68 95 t35 132t11 156q0 48 -5.5 89.5t-18.5 81t-38 63t-61 23.5q-51 0 -95.5 -54t-74 -138t-48.5 -165.5t-28 -155.5z" />
<glyph unicode="c" horiz-adv-x="635" d="M48 332q0 130 59.5 261t157 215.5t197.5 84.5q71 0 117 -37t46 -97q0 -36 -32 -68.5t-67 -38.5q-16 50 -63 84.5t-95 34.5q-45 0 -78 -37t-50 -97.5t-24.5 -121.5t-7.5 -123q0 -66 5 -115t18.5 -91.5t39.5 -65t64 -22.5q70 0 138.5 55.5t106.5 113.5l36 -32 q-30 -84 -134.5 -175t-186.5 -91q-65 0 -113.5 28.5t-77 79.5t-42.5 115t-14 140z" />
<glyph unicode="d" horiz-adv-x="832" d="M40 225q0 76 20 164.5t58.5 175.5t89 158t118.5 115t140 44q78 0 93 -31l14 4l20 317l-134 28l10 73l275 26l19 -24l-123 -991q-5 -43 -5 -74q0 -87 40 -87q32 0 77.5 52t69.5 95l40 -28q-78 -266 -296 -266q-40 0 -61 30t-22 76v12q-1 40 5 78q6 44 20 87l-13 4 q-20 -55 -44.5 -101.5t-59.5 -91.5t-82 -70.5t-101 -25.5q-168 0 -168 251zM200 305q0 -53 1 -80t6 -58.5t17 -44.5t31 -13q130 0 232 289q47 134 62 280q-46 97 -132 97q-59 0 -103.5 -48t-68 -123.5t-34.5 -151t-11 -147.5z" />
<glyph unicode="e" horiz-adv-x="636" d="M48 293q0 100 32 207t84 195t127 145t154 57q72 0 121.5 -59t49.5 -138q0 -62 -21.5 -113.5t-57.5 -88t-90 -66t-111 -48t-128 -34.5q6 -247 162 -247q116 0 206 163l37 -32q-16 -51 -46 -97.5t-71 -84.5t-95 -60.5t-112 -22.5q-61 0 -108 25.5t-75.5 70.5t-43 102.5 t-14.5 125.5zM208 414q50 16 89.5 35t76.5 46t57.5 65.5t20.5 84.5q0 50 -21 82.5t-62 32.5q-63 0 -107 -89.5t-54 -256.5z" />
<glyph unicode="f" horiz-adv-x="521" d="M-270 -242q8 62 59 110q99 -96 201 -96q60 0 90 24.5t40 76.5q7 75 11.5 219t8.5 387t4 263l-115 11l12 92l108 4q20 223 148 345q109 115 290 115q79 -3 131.5 -44.5t52.5 -99.5q0 -77 -74 -124q-43 55 -105 87t-127 32q-57 0 -84 -15t-39 -56q-26 -77 -34 -245l234 1 l-19 -98l-217 -9v-73q0 -55 -0.5 -112.5t-0.5 -114.5v-76v-20q0 -85 -7 -167q-9 -92 -22.5 -174.5t-44.5 -152t-75 -120.5t-113 -79.5t-158 -29.5q-72 0 -113.5 36t-41.5 103z" />
<glyph unicode="g" horiz-adv-x="769" d="M-10 -275q0 51 37 86t85 41q18 -46 77 -72.5t120 -26.5q54 0 97 18.5t70.5 50.5t45.5 77t25 94t7 107v8q0 104 -25 221q-38 -98 -86.5 -176.5t-107.5 -128.5t-114 -50q-47 0 -80 23t-51 63t-25.5 85t-7.5 99q0 91 31.5 204t82 213t123.5 168t148 68q81 0 120 -105h10 q25 53 70 83q35 23 62 23q9 0 17 -3l18 -15l-69 -468q35 -135 35 -246q-1 -114 -33 -203q-31 -88 -80 -152t-110 -106t-120.5 -62.5t-113.5 -20.5q-120 0 -189 27t-69 76zM209 305q0 -176 54 -176q121 0 260 333l13 223q-41 87 -123 87q-49 0 -87 -33.5t-59 -82.5 t-34.5 -116t-18 -122.5t-5.5 -112.5z" />
<glyph unicode="h" horiz-adv-x="839" d="M30 8l100 426l98 746l-136 28l10 73l287 23l16 -21l-70 -458l-63 -261l12 -3q59 136 149 236.5t169 100.5q82 0 116 -50t34 -140q0 -63 -18 -149.5t-39.5 -155t-39.5 -136t-18 -98.5q0 -46 32 -46q44 0 89.5 39.5t69.5 83.5l41 -29q-21 -55 -45.5 -95.5t-59.5 -75 t-84.5 -52t-111.5 -17.5q-54 0 -75.5 25.5t-21.5 72.5q0 45 27.5 148t55.5 219.5t28 193.5q0 43 -11.5 61.5t-35.5 18.5q-58 0 -111 -51.5t-88 -123t-57 -155.5q-2 -63 -4 -101.5t-8 -88.5t-16 -80t-27 -61.5t-41 -46.5q-25 -16 -59 -24q-21 -5 -46 -5q-16 0 -33 2z" />
<glyph unicode="i" horiz-adv-x="541" d="M0 631q19 45 50 91t72 88.5t94.5 69t107.5 26.5q49 0 68 -33.5t19 -97.5q0 -78 -23 -184.5t-46.5 -215t-23.5 -188.5q0 -64 33 -64q44 0 89 36t69 77l42 -29q-90 -230 -288 -230q-64 0 -89.5 40.5t-25.5 112.5q0 50 24 148t47.5 208.5t23.5 189.5q0 73 -30 74 q-50 0 -165 -151zM269 1140q0 49 32 88.5t76 39.5q41 0 66.5 -30t25.5 -75t-33 -83.5t-76 -38.5q-42 0 -66.5 28t-24.5 71z" />
<glyph unicode="j" horiz-adv-x="458" d="M-229 -242q8 62 59 110q94 -96 189 -96q21 0 37 4.5t28 16t20.5 24.5t14.5 35.5t10.5 44.5t8.5 56.5t7 65t8 77t10 86.5q6 50 41.5 254.5t35.5 244.5q0 71 -40 71q-30 0 -73 -58t-63 -99l-51 36q17 45 45 91.5t65.5 89.5t86.5 70t100 27q107 0 107 -144q0 -26 -13.5 -106 t-39 -217.5t-40.5 -231.5q-2 -12 -26 -224q-17 -124 -89 -216q-43 -66 -124.5 -108.5t-168.5 -42.5q-145 12 -145 139zM230 1140q0 49 32 88.5t76 39.5q41 0 66.5 -30t25.5 -75t-33 -83.5t-76 -38.5q-42 0 -66.5 28t-24.5 71z" />
<glyph unicode="k" horiz-adv-x="777" d="M40 0l83 440l87 735l-135 28l10 73l287 23l16 -21l-58 -446l-65 -281l13 -5q111 174 193 258q101 102 177 102q34 0 64 -40t30 -101q0 -36 -13.5 -74t-43.5 -82t-84.5 -92.5t-129.5 -95.5q25 -93 75.5 -195.5t84.5 -102.5q26 0 71.5 33.5t77.5 89.5l42 -30 q-30 -88 -106.5 -158.5t-151.5 -70.5q-42 0 -76 26.5t-55 64t-38 91.5t-25.5 95t-17.5 90q-3 20 -5 29l11 18q106 75 171 160t65 139q0 48 -36 48q-57 0 -162 -131.5t-135 -211.5q-1 -43 -2 -75t-3.5 -72t-6.5 -68.5t-10 -61t-15 -54.5t-20.5 -43.5t-27 -33.5t-34.5 -19 q-14 -5 -31 -5q-7 1 -13 1q-24 2 -52 13z" />
<glyph unicode="l" horiz-adv-x="425" d="M40 1203l11 73l287 23l15 -21l-85 -655l-37 -370q-4 -21 -4 -45q1 -19 3 -40q6 -47 32 -47q45 0 90 39.5t71 85.5l42 -30q-90 -240 -305 -240q-83 0 -98 98q-6 38 -6 77q0 62 15 125q1 13 2 19l71 590l32 290z" />
<glyph unicode="m" horiz-adv-x="1322" d="M-5 641q17 47 45.5 94.5t66.5 90.5t87.5 70t100.5 27q36 -1 53 -41q14 -34 14 -84v-18q-3 -62 -11 -116.5t-20 -101.5l11 -2q18 52 46.5 105.5t66.5 105t88 84.5t101 33q54 0 87 -21t45 -61q10 -35 10 -74q0 -5 -1 -10q-2 -45 -12 -104l10 -5q120 284 303 284 q82 0 119.5 -47t37.5 -137q0 -60 -29 -172t-58 -221.5t-29 -162.5q0 -36 23 -36q51 0 91.5 38t67.5 87l43 -30q-88 -240 -297 -240q-62 0 -84 21.5t-22 63.5q0 53 19 129t42 142t42 153t19 160q0 76 -57 76h-3q-45 0 -87 -32q-42 -33 -75 -90.5t-56.5 -120.5t-41.5 -135 q-2 -70 -4.5 -106.5t-10 -90t-22 -80t-38.5 -54.5q-24 -26 -62 -36q-27 -7 -60 -7q-14 0 -30 1l-16 28l99 380q2 14 9 56t10 65t7 61t1.5 60.5t-8 46t-19.5 34.5t-35 11q-44 0 -82.5 -32.5t-67 -89t-49.5 -116.5t-37 -130q-3 -82 -6.5 -126.5t-16.5 -101t-36.5 -82.5 t-66.5 -42q-32 -12 -74 -13q-15 0 -32 2l-14 27l102 370q0 4 7 62t11 102q2 44 4 100q0 8 1 17q1 45 -7 71q-8 32 -27 31q-27 0 -67 -48.5t-71 -107.5z" />
<glyph unicode="n" horiz-adv-x="902" d="M-5 651q23 62 64.5 121.5t105.5 105t130 45.5q29 0 47 -20q17 -21 22 -55q5 -31 5 -66q0 -4 -1 -7q0 -39 -7.5 -83t-14.5 -77t-15 -62l11 -6q17 45 51 102.5t78 114t97 95t98 38.5q82 0 119.5 -47t37.5 -137q0 -60 -29 -172t-58 -221.5t-29 -162.5q0 -36 23 -36 q51 0 91.5 38t67.5 87l43 -30q-88 -240 -297 -240q-58 0 -80.5 22t-22.5 77q0 42 18.5 114.5t41 141.5t41 157t18.5 157q0 76 -57 76q-72 0 -142.5 -93t-115.5 -264q-3 -86 -6.5 -133.5t-16.5 -108t-37 -88.5q-22 -29 -66 -47q-31 -13 -73 -13q-16 0 -33 2l-14 27l102 385 q10 90 14 139t6 115q1 16 1 29q0 45 -6 67q-8 30 -27 30q-27 0 -68.5 -53.5t-68.5 -101.5z" />
<glyph unicode="o" horiz-adv-x="742" d="M48 360q0 100 25.5 194t72.5 171t123 123.5t168 46.5q85 0 151.5 -53t100 -136.5t33.5 -179.5q0 -80 -15.5 -158t-49 -149.5t-80.5 -125.5t-114 -86.5t-146 -32.5q-130 0 -199.5 108.5t-69.5 277.5zM212 460q0 -98 18.5 -179.5t59 -136t97.5 -54.5q173 0 173 334 q0 83 -20.5 163t-66 138.5t-106.5 58.5q-80 0 -117.5 -88.5t-37.5 -235.5z" />
<glyph unicode="p" horiz-adv-x="829" d="M-24 632q17 47 44.5 94t65 90.5t86.5 71t100 27.5q22 0 38.5 -8.5t25 -25.5t13.5 -35.5t4 -45.5t-2.5 -49.5t-7.5 -52.5t-10 -48.5t-10.5 -44.5t-8.5 -35q-3 -14 -3 -15l10 -2q128 324 293 324q50 0 88.5 -30t61 -80t34 -108t11.5 -119q0 -246 -125 -399t-344 -153l-7 74 q169 21 235.5 131.5t66.5 330.5q0 44 -2.5 73t-10.5 60t-26 46.5t-46 15.5q-78 0 -156 -147q-93 -174 -132 -460q0 -117 -6 -196t-21.5 -142.5t-43.5 -96.5t-71 -47q-25 -8 -57 -8q-22 0 -46 4l-14 27l121 478l67 471q7 45 7 76q0 76 -39 76q-27 0 -68.5 -55t-68.5 -104z " />
<glyph unicode="q" horiz-adv-x="789" d="M58 244q0 91 31.5 204t82 213t123.5 168t148 68q87 0 128 -105h10q26 53 76 83q37 23 67 23q9 0 18 -3l18 -15l-134 -777l-17 -211q-3 -39 -3 -65q0 -27 4 -41q7 -25 37 -25q45 0 90.5 33t69.5 70l32 -49q-96 -200 -308 -200q-51 0 -82 39.5t-31 91.5q0 172 100 522h-13 q-87 -162 -152 -228t-141 -66q-58 0 -94 41.5t-48 98t-12 130.5zM210 305q0 -71 12.5 -123.5t41.5 -52.5q54 0 132.5 96.5t152.5 279.5l-4 180q-43 87 -131 87q-49 0 -87 -33.5t-59 -82.5t-34.5 -116t-18 -122t-5.5 -113z" />
<glyph unicode="r" horiz-adv-x="687" d="M-5 655q17 42 41.5 82t58 78t78 61t91.5 23q37 0 59.5 -17t29.5 -49.5t7 -64t-5 -75.5l-33 -263l14 -3q10 30 24.5 80t25 86.5t26 81.5t32 76t36.5 59t45.5 42t55.5 14q53 0 86.5 -31t33.5 -80q0 -42 -14.5 -74.5t-31.5 -39.5q-3 3 -10 7.5t-37 12.5t-70 8t-85 -80 t-101 -244q3 -51 4 -83v-27v-49q-2 -45 -9.5 -72t-22.5 -57.5t-38 -45.5q-24 -15 -60 -23q-21 -5 -45 -5q-18 0 -38 3l-14 27l73 375q0 9 2 60t3.5 102t1.5 91q0 106 -42 106q-25 0 -68.5 -51t-55.5 -77z" />
<glyph unicode="s" horiz-adv-x="617" d="M20 99q0 52 33.5 90t81.5 44q22 -71 69.5 -118.5t120.5 -47.5q50 0 79 26t29 78q-2 38 -30.5 72t-69.5 58.5t-88.5 56t-88 63t-67.5 81t-27 108.5q0 77 49 144t129 105t170 38q76 0 131.5 -31.5t55.5 -90.5q0 -87 -96 -127q-34 68 -71.5 109t-92.5 41q-63 0 -105.5 -32.5 t-42.5 -79.5t40.5 -93.5t98.5 -85.5t116 -79q58 -38 98 -88q39 -48 38 -98q0 -124 -106 -202q-102 -75 -242 -75q-78 0 -145 37t-67 97z" />
<glyph unicode="t" horiz-adv-x="591" d="M67 758l25 85l97 11l38 178l137 19l11 -13l-21 -184l217 -4l-26 -97l-207 -8l-51 -353q-21 -143 -22 -181q0 -60 30 -60q13 0 26 4t25.5 13t23 18t23 26.5t21.5 29.5t22.5 35t21 36t22.5 40t22 40l49 -38q-15 -57 -34 -107t-49 -101.5t-65 -87.5t-83 -59t-103 -23 q-37 0 -62.5 12t-38 34.5t-18.5 50.5q-4 21 -4 47q0 9 1 19q2 38 7 75t12 82l9 57l56 391z" />
<glyph unicode="u" horiz-adv-x="926" d="M-5 623q24 62 64 122t103 107t127 47q63 0 89 -34t26 -95q0 -51 -27.5 -159t-55.5 -220t-28 -175q0 -66 59 -66q51 0 104 57t91 136.5t60 163.5q1 60 4.5 107t12.5 96.5t25.5 83.5t40.5 61t61 37q22 6 47 6q18 0 37 -3l16 -28l-100 -383l-17 -200q-1 -10 -3.5 -31 t-3.5 -33t-2 -29t1 -27.5t6.5 -21t14 -15t22.5 -4.5q32 0 76.5 51.5t69.5 95.5l41 -28q-38 -131 -115.5 -198.5t-179.5 -67.5q-43 0 -65 30t-22 81q0 4 -1 7q1 47 7 90q6 46 20 99l-11 2q-49 -115 -150 -213t-198 -98q-129 0 -129 142q0 54 27 159t54 216.5t27 181.5 q0 64 -34 65q-47 0 -143 -146z" />
<glyph unicode="v" horiz-adv-x="828" d="M-10 611q19 45 48 90.5t67.5 88.5t88 70t98.5 27q82 0 82 -143q0 -38 -27 -263l-11 -81q-9 -67 -9 -119q0 -190 120 -190q55 0 97.5 46.5t65.5 119t34.5 146.5t11.5 142q0 185 -126 300q46 51 111 51q60 0 98.5 -63.5t38.5 -144.5q0 -92 -15.5 -188.5t-49 -190t-81 -167 t-118.5 -118.5t-154 -45q-118 -1 -162 97q-29 64 -29 163q0 51 8 110l32 243q9 50 9 83q0 12 -2 23q-4 37 -34 37q-6 0 -21.5 -11.5t-49.5 -49.5t-73 -95z" />
<glyph unicode="w" horiz-adv-x="1174" d="M-5 637q23 44 55.5 89t74.5 88.5t92.5 71t98.5 27.5q83 0 83 -90q0 -48 -17.5 -124t-38.5 -145t-38.5 -154.5t-17.5 -150.5q0 -131 101 -133q159 0 198 368q-5 48 -5 94q-1 23 1 45q4 67 16 117q13 52 54 78q31 20 77 19q16 0 33 -2l11 -18l-59 -361q-4 -41 -4 -85 q0 -17 1 -35q2 -62 8.5 -113t32 -84t67.5 -33q51 0 89.5 43t59 111t30 137.5t9.5 136.5q0 83 -29.5 171t-70.5 153q55 42 107 42q58 0 86.5 -68.5t28.5 -155.5q0 -89 -16.5 -184.5t-50.5 -188t-81.5 -165t-116 -117.5t-146.5 -45t-108.5 54t-30.5 163l-13 2 q-32 -97 -104.5 -159t-176.5 -62q-162 0 -162 204q0 68 24 173l61 267q1 5 4 17q7 29 10 44.5t5 37.5t-4 32.5t-19 10.5q-34 0 -168 -153z" />
<glyph unicode="x" horiz-adv-x="896" d="M20 70q0 86 48 127q44 -39 102 -39q110 0 207 243q-12 47 -27 95.5t-38 105.5t-51.5 93t-56.5 36q-34 0 -107 -139l-47 37q93 253 250 253q140 0 204 -340q66 149 139 243q73 86 125 86t80 -25t28 -60q0 -80 -46 -129q-29 26 -99 26q-108 0 -199 -209q9 -52 29.5 -130 t53 -154.5t58.5 -76.5t62 33q37 34 69 91l43 -30q-86 -230 -261 -230q-119 0 -174 335q-152 -343 -291 -346q-50 0 -75 30q-26 31 -26 74z" />
<glyph unicode="y" horiz-adv-x="852" d="M-68 -254q6 44 21 66t54 47q70 -71 141 -71q87 0 117.5 36.5t30.5 132.5q0 89 -7.5 215t-21 259t-38 225t-54.5 92q-54 0 -126 -86l-49 37q32 74 102.5 138.5t152.5 64.5q59 0 99.5 -62.5t58.5 -153t25 -198.5q6 -82 6 -149v-43q-3 -84 -9 -142h9q194 184 194 431 q0 88 -42.5 159.5t-92.5 103.5q18 23 54.5 40.5t71.5 17.5q73 0 119 -61.5t46 -167.5q0 -312 -363 -621q-8 -76 -33.5 -150.5t-66 -140t-101.5 -106t-132 -40.5t-118.5 33t-47.5 94z" />
<glyph unicode="z" horiz-adv-x="778" d="M10 26l284 369l264 370q-13 -2 -27 -2q-47 1 -111 23q-84 30 -120 29q-64 0 -70 -116q0 -68 9 -116q-28 -10 -54 -10q-34 1 -66 17q-57 30 -57 91q0 82 78.5 139t182.5 57q42 0 131.5 -9t139.5 -10q110 0 186 25l18 -28l-344 -441l-204 -301q20 6 41 6q23 0 47 -7 q47 -14 94 -35t77 -21q66 0 70 73v9q0 28 -10 77q-12 57 -23 88q48 24 87 24q46 0 73.5 -26.5t27.5 -73.5q0 -94 -78.5 -167t-181.5 -73q-29 0 -136 14.5t-175 14.5q-65 0 -134 -18z" />
<glyph unicode="{" horiz-adv-x="667" d="M17 393l13 99l51 8q68 12 109 72t56 149q34 227 66 359q22 83 83 135q60 51 154 51h101l-21 -102l-82 -6q-80 -8 -101 -233q-2 -17 -4 -37.5t-3 -30.5t-2 -14q-1 -5 -3 -21t-3 -25q-5 -35 -7 -45q0 -1 -3 -15.5t-5 -25.5q-7 -30 -11 -42q-2 -6 -7 -18.5t-8 -20.5 q-53 -148 -174 -182l-2 -6q131 -40 133 -251q0 -62 -14 -180t-14 -169q0 -111 64 -117l74 -5l-4 -101h-105q-107 0 -152 60t-45 182q0 51 13 164q12 104 12 174q0 168 -107 186z" />
<glyph unicode="|" horiz-adv-x="338" d="M17 -343l192 1572l112 -11l-191 -1573z" />
<glyph unicode="}" horiz-adv-x="673" d="M17 -381l22 101l74 5q87 7 114 235q28 227 49 279q29 70 46 97q52 81 137 106v6q-133 37 -133 238v20q0 82 15 188q16 113 16 159q0 101 -55 105l-82 6l5 102h101q105 0 151 -61t46 -179q0 -66 -13 -176q-12 -101 -12 -157q0 -172 110 -193l47 -8l-12 -99l-53 -8 q-66 -12 -106 -71t-52 -149q-34 -231 -69 -360q-24 -86 -85 -135q-63 -51 -158 -51h-103z" />
<glyph unicode="~" horiz-adv-x="860" d="M21 416q3 9 10 24q48 112 123 155q35 21 70 21h6q2 -2 8 -1l442 -44h5q32 0 75 45l15 15h65q-10 -28 -34 -69q-23 -39 -48 -67q-24 -27 -57 -47q-35 -21 -70 -21h-16l-444 45h-5q-36 0 -78 -51l-14 -19z" />
<glyph unicode="&#xa1;" horiz-adv-x="341" d="M18 -123q0 110 53 386l76 360l71 13l-11 -169q-8 -115 -8 -317v-62q8 -226 83 -384q-47 -33 -108 -32q-62 2 -100 35q-39 34 -51 102q-8 31 -5 68zM99 841q0 11 8 47q9 40 43 74t80 34q39 -3 63 -27q22 -22 27 -50q4 -24 4 -29q0 -9 -6 -37q-8 -35 -41 -68 q-36 -36 -70 -37q-38 -2 -54 7q-15 8 -32 28q-12 15 -18 35q-4 15 -4 23z" />
<glyph unicode="&#xa2;" horiz-adv-x="652" d="M17 307q0 96 25 184.5t66 155t93.5 119.5t107 84.5t106.5 43.5l8 220l148 17l-58 -235q58 -11 90 -48t32 -92q0 -49 -39.5 -78.5t-99.5 -35.5q-12 164 -79 164q-80 0 -154 -136t-74 -340q0 -110 37.5 -174t114.5 -64q56 0 96.5 16.5t86.5 48.5l24 -51 q-42 -53 -108.5 -90.5t-133.5 -44.5l-5 -221l-151 -16l62 244q-93 23 -144 108t-51 221z" />
<glyph unicode="&#xa3;" horiz-adv-x="1080" d="M17 0l19 73l165 45q45 101 82 333l10 86l-176 -10l26 100l167 9l19 134q35 224 155 338q122 116 300 116q134 0 225 -38l-70 -309l-80 13l-18 209q-39 23 -80 23q-119 0 -166 -90q-50 -90 -88 -342l-7 -47l219 12l-23 -98l-207 -14l-7 -38q-40 -293 -112 -407l453 -4 l158 247l82 -18l-77 -323h-969z" />
<glyph unicode="&#xa4;" horiz-adv-x="695" d="M19 249l91 76q-26 48 -26 135q0 84 56 155l-76 84l93 81l62 -85q80 59 163 57q82 0 143 -48l89 77l62 -85l-92 -73q21 -45 21 -109q0 -108 -63 -180l83 -83l-97 -81l-66 89q-85 -47 -152 -47q-68 0 -132 41l-87 -88zM189 468q0 -83 35 -121q36 -39 101 -39q63 -1 114 46 q61 58 61 158q0 68 -37 106q-37 39 -103 39q-67 0 -113 -48q-58 -58 -58 -141z" />
<glyph unicode="&#xa5;" horiz-adv-x="1078" d="M17 242l25 97h299l17 145h-307l23 99h267l-181 550l-128 43l21 76h465l-23 -76l-138 -39l157 -496l281 492l-154 43l21 76h399l-20 -76l-128 -39l-325 -554h302l-23 -99h-318l-20 -145h328l-23 -97h-315l-17 -129l160 -35l-19 -78h-505l20 72l158 48l13 122h-312z" />
<glyph unicode="&#xa6;" horiz-adv-x="333" d="M17 -343l94 766l107 -12l-94 -766zM123 529l86 700l107 -11l-92 -701z" />
<glyph unicode="&#xa7;" horiz-adv-x="948" d="M17 -123q2 27 8 51q26 78 105 111q32 15 74 17q37 1 71 -10q-30 -81 -29 -145q0 -102 67 -142q44 -34 108 -36q62 -1 117 33q51 32 74 94q13 30 10 64q0 86 -63 153q-20 23 -126 109q-109 88 -179 170q-47 59 -67 106q-18 43 -18 76q0 30 1 33v13q7 54 27 102 q460 -390 469 -399q75 -69 111 -125t44 -133q2 -5 2 -31q0 -125 -94 -225q-69 -74 -165 -108q-97 -35 -183 -35q-156 0 -256 73q-43 28 -73 76q-28 45 -33 82q-3 7 -2 26zM233 906q0 8 1 12v10q6 63 35 115q53 99 152 163q98 63 212 72h24q159 0 274 -100l-65 -346l-88 19 l-7 250q-48 64 -119 78q-16 5 -40 5q-68 0 -125 -45q-56 -44 -62 -123v-11q0 -72 38 -127q37 -53 131 -129q100 -81 148 -126q55 -52 95 -110q41 -59 51 -137q3 -9 2 -54q-2 -50 -26 -97l-320 268q-158 126 -234 219q-77 94 -77 194z" />
<glyph unicode="&#xa8;" horiz-adv-x="512" d="M41 1435q0 33 25 55t58 22q35 0 60 -22q24 -21 24 -56t-24 -56q-25 -22 -60 -22q-33 0 -58 22t-25 57zM303 1435q0 33 25 55t58 22q35 0 60 -22t25 -55q0 -35 -25 -57t-60 -22q-33 0 -58 22t-25 57z" />
<glyph unicode="&#xa9;" horiz-adv-x="1289" d="M18 622q0 137 51 260q53 127 135 211q86 87 200 140q113 52 248 52q134 0 257 -53q121 -52 202 -145q162 -194 161 -462q0 -132 -50 -250q-51 -119 -135 -208q-81 -85 -205 -141q-120 -54 -252 -54t-247 50q-113 49 -194 136q-80 86 -125 206q-46 123 -46 258zM139 627 q0 -156 64 -281q66 -128 177 -197q115 -71 238 -71q127 0 220 40q96 41 164 112t109 172q41 102 41 213q0 227 -122 393q-61 82 -164 129t-233 47q-131 0 -247 -75t-182 -201q-65 -124 -65 -281zM282 623q0 220 174 348q97 68 228 67q132 -2 213 -63l-16 -195l-53 6l-22 130 q-42 52 -151 51q-111 -2 -170 -81q-59 -80 -59 -231t74 -234t197 -83q124 0 210 70q13 -13 28 -48q-115 -111 -284 -111q-103 0 -185 45q-84 46 -134 131t-50 198z" />
<glyph unicode="&#xaa;" horiz-adv-x="701" d="M20 655q0 55 25 103.5t74 88t131 62.5t186 23l5 34q5 31 7 53t2.5 47.5t-4 42t-14 31.5t-27 22.5t-42.5 7.5q-50 0 -73.5 -40.5t-51.5 -151.5q-60 -6 -91 17.5t-31 70.5q0 48 55.5 93t129 70t134.5 25q112 0 151.5 -58.5t19.5 -187.5l-42 -260q-9 -56 7 -79.5t71 -33.5 l41 -7l-21 -62q-35 -27 -60 -36.5t-63 -9.5q-75 0 -107.5 35.5t-25.5 83.5h-9q-15 -22 -30.5 -38.5t-43.5 -38.5t-69 -34.5t-90 -12.5q-61 0 -102.5 39.5t-41.5 100.5zM197 701q0 -30 17.5 -50t55.5 -20q17 0 32.5 5t30 15t24 17.5t24 22t19.5 18.5l26 165 q-119 -21 -174 -62t-55 -111z" />
<glyph unicode="&#xab;" horiz-adv-x="645" d="M19 449l2 20l323 352l35 -60l-213 -300l117 -321l-63 -62zM267 449l1 20l324 352l35 -60l-213 -300l117 -321l-63 -62z" />
<glyph unicode="&#xac;" horiz-adv-x="816" d="M22 558l28 106h745l-48 -314l-109 -18l36 226h-652z" />
<glyph unicode="&#xad;" horiz-adv-x="489" d="M22 406l26 116l418 59l-26 -115z" />
<glyph unicode="&#xae;" horiz-adv-x="1010" d="M18 1022q0 118 37 213.5t102 158t152 95.5t188 33q104 0 193.5 -32t157 -93t106 -156t38.5 -215q0 -114 -39 -206.5t-107.5 -153t-160.5 -93.5t-198 -33q-98 0 -184 34t-149 95t-99.5 152.5t-36.5 200.5zM106 1036q0 -96 30 -175t82.5 -132.5t123.5 -83t153 -29.5 q113 0 206.5 51t148 143t54.5 206q0 97 -32 178.5t-87 136.5t-129.5 85t-158.5 30q-112 0 -199.5 -46.5t-139.5 -141t-52 -222.5zM218 777l7 48l80 28v395l-81 18l4 53q140 22 246 22q121 0 183 -34t62 -113q0 -52 -37 -100t-88 -66l-1 -2l77 -91q37 -43 59.5 -60.5 t60.5 -35.5l16 -7l-10 -55q-33 -11 -82 -11q-63 0 -101.5 36t-80.5 116l-44 83h-56v-144l74 -27l-5 -53h-283zM432 1068h79q72 31 71 102q0 47 -30.5 74.5t-85.5 27.5q-8 0 -16 -0.5t-12.5 -1t-5.5 -0.5v-202z" />
<glyph unicode="&#xaf;" horiz-adv-x="527" d="M41 1351l13 99h432l-13 -99h-432z" />
<glyph unicode="&#xb0;" horiz-adv-x="374" d="M26 1114q0 71 50 123q49 51 121 51q70 0 112 -45q41 -44 41 -118q0 -71 -47 -123q-46 -51 -119 -51q-71 0 -115 45q-43 44 -43 118zM98 1126q0 -52 25 -89q26 -38 69 -38q88 0 89 114q0 56 -27 92t-69 36q-43 0 -65 -31t-22 -84z" />
<glyph unicode="&#xb1;" horiz-adv-x="699" d="M18 13l17 104l611 7l-16 -104zM113 494l25 101h209l30 233l106 -13l-25 -220h223l-26 -101h-209l-28 -239l-109 12l28 227h-224z" />
<glyph unicode="&#xb2;" horiz-adv-x="670" d="M20 531l25 107l174 123q50 36 77.5 57t61 52t49.5 56.5t27.5 59t11.5 71.5q0 96 -90 96q-36 0 -67 -16.5t-47 -41.5l-42 -129l-67 5l12 170q37 54 122.5 85t168.5 31q103 0 158.5 -39.5t55.5 -113.5q0 -38 -11.5 -74.5t-29 -66.5t-49 -62t-59 -55.5t-71.5 -53.5 t-74 -48.5t-79 -47.5l-74 -44h270l103 153l54 -21l-59 -253h-551z" />
<glyph unicode="&#xb3;" horiz-adv-x="642" d="M19 563l62 199l73 -8l-13 -135q12 -17 37 -28.5t56 -11.5q72 0 123 43t51 111q0 50 -51 83t-134 33l-6 59q24 7 44 14t53 24t56 35.5t40.5 48t17.5 62.5q0 41 -23 69t-67 28q-59 0 -86 -22l-49 -157l-75 6l15 171q30 34 109.5 63t153.5 29q97 0 157 -36t60 -103 q0 -44 -18 -80t-49.5 -61.5t-67 -43t-76.5 -28.5l-1 -7q95 -10 143 -49.5t48 -103.5q0 -78 -56.5 -141.5t-144 -97t-185.5 -33.5q-74 0 -130.5 18.5t-66.5 49.5z" />
<glyph unicode="&#xb4;" horiz-adv-x="310" d="M40 1352l119 319l111 -38l-180 -311z" />
<glyph unicode="&#xb5;" horiz-adv-x="946" d="M17 -364q95 544 132 859l30 243l-131 54l23 82l272 21l20 -24l-68 -554q-2 -19 -4 -53q0 -156 135 -158q43 0 63 8q16 6 32 11q11 3 29 15q15 10 23 14q42 25 50 34l66 546l-155 41l21 92l300 28l16 -24l-78 -657l-3 -36q0 -51 27 -67q22 -13 68 -23l44 -10l-20 -85 q-83 -19 -151 -19q-67 0 -100 33t-33 91q0 8 2 10v13q0 2 1 4v4h-12q-161 -155 -309 -155q-93 0 -132 65h-6v-55q0 -58 -2 -70l-20 -304z" />
<glyph unicode="&#xb6;" horiz-adv-x="1295" d="M18 785q0 84 28.5 158t78 128.5t115 94t140.5 59.5t153 20h346l-197 -1245h-406l19 74l248 47l163 1031q-80 2 -106 2q-177 0 -274 -86t-97 -251q0 -54 16 -102t47 -86.5t84 -60.5t121 -22l-33 -98q-73 0 -138 12.5t-121.5 39t-98 65.5t-65 95.5t-23.5 124.5zM761 0 l197 1245h320l-21 -77l-176 -38l-161 -1016l176 -34l-23 -80h-312z" />
<glyph unicode="&#xb7;" horiz-adv-x="287" d="M23 507q0 50 35 82q34 31 85 31q48 0 85 -34q36 -33 36 -82q0 -48 -36 -86q-36 -37 -85 -37q-48 0 -84 38q-36 37 -36 88z" />
<glyph unicode="&#xb8;" horiz-adv-x="266" d="M25 -323q84 30 84 81q0 40 -71 108l95 137h74l-54 -78q88 -76 87 -146q0 -103 -195 -160z" />
<glyph unicode="&#xb9;" horiz-adv-x="541" d="M20 531l16 74l157 25l78 492h-145l16 77l309 46h19l-98 -618l150 -13l-19 -83h-483z" />
<glyph unicode="&#xba;" horiz-adv-x="759" d="M20 803q0 83 25.5 157t69 127.5t99.5 92.5t118 58.5t124 19.5q135 0 209.5 -77.5t74.5 -211.5q0 -99 -35 -185t-94 -144.5t-135 -92t-158 -33.5q-143 0 -220.5 79t-77.5 210zM196 811q0 -48 6.5 -85t22.5 -68t47.5 -47.5t76.5 -16.5q56 0 99 31.5t67 84.5t35.5 113 t11.5 125q0 48 -7.5 86.5t-24.5 71.5t-48 51t-75 18q-47 0 -84 -21.5t-60.5 -56.5t-39 -83.5t-21.5 -98t-6 -104.5z" />
<glyph unicode="&#xbb;" horiz-adv-x="645" d="M19 138l213 300l-117 321l63 62l201 -371l-1 -20l-324 -352zM267 138l213 300l-117 321l63 62l201 -371l-2 -20l-323 -352z" />
<glyph unicode="&#xbc;" horiz-adv-x="1344" d="M17 531l16 74l157 25l78 492h-145l16 77l309 46h19l-97 -618l149 -13l-19 -83h-483zM143 -10l501 598l490 622l175 -3l-6 -29l-494 -587l-470 -623zM719 178l2 92l484 467l55 -11q-27 -113 -56 -296l-25 -158h148l-24 -97h-139l-15 -92l119 -18l-17 -65h-414l13 58 l141 27l15 93h-287zM828 272h190l38 236z" />
<glyph unicode="&#xbd;" horiz-adv-x="1417" d="M17 531l16 74l157 25l78 492h-145l16 77l309 46h19l-97 -618l149 -13l-19 -83h-483zM123 -10l501 598l490 622l175 -3l-6 -29l-494 -587l-470 -623zM770 2l24 107l175 123q26 19 77 58q41 32 61 51q32 30 49 57q17 26 28 58t11 72q0 96 -90 96q-35 0 -67 -17 q-31 -16 -47 -41l-42 -129l-67 5l12 170q37 53 123 85q84 31 168 31q104 0 159 -40q56 -41 56 -113q0 -37 -12 -74q-12 -36 -30 -67q-19 -32 -48 -62q-16 -17 -59 -55q-20 -18 -71 -53q-6 -4 -75 -49q-17 -11 -78 -48l-75 -44h270l104 153l53 -21l-59 -253h-550z" />
<glyph unicode="&#xbe;" horiz-adv-x="1320" d="M17 546l61 199l74 -8l-14 -135q12 -16 37 -28q26 -12 56 -12q74 0 124 43t50 111q0 51 -50 83q-51 33 -134 33l-7 59q38 12 44 14q17 6 53 24q39 20 57 35q23 20 40 48t17 63q0 41 -22 69t-68 28q-58 0 -86 -22l-49 -157l-75 6l15 171q30 34 110 63q81 29 154 29 q96 0 156 -36t60 -103q0 -44 -18 -80q-19 -38 -49 -62q-27 -22 -67 -42q-33 -16 -77 -29l-1 -7q96 -11 143 -49q49 -40 49 -104q0 -79 -57 -142t-144 -96q-90 -34 -186 -34q-74 0 -130 19t-66 49zM132 -10l502 598l490 622l175 -3l-6 -29l-494 -587l-470 -623zM695 178l2 92 l484 467l55 -11q-27 -113 -56 -296l-25 -158h148l-24 -97h-139l-15 -92l119 -18l-17 -65h-414l13 58l141 27l15 93h-287zM804 272h190l38 236z" />
<glyph unicode="&#xbf;" horiz-adv-x="585" d="M17 -1q0 66 7 94q20 95 100 165q49 39 68 47q10 4 19.5 7.5t15.5 6t7 2.5q10 4 17 7q4 2 7.5 3t4.5 1h2l9 5q8 4 11 6q4 2 11 6q2 2 6 3.5t5 2.5q6 4 10 7q9 8 30 30q27 30 27 92v21q-2 7 -2 16q0 11 -4 50l76 16q34 -85 44 -134l5 -52q0 -59 -35 -106t-69 -70 q-29 -20 -92 -45q-57 -23 -83 -39q-27 -17 -56 -50q-28 -32 -34 -77v-7q-2 -5 -1 -10q0 -81 72 -133q27 -17 65 -24h10q2 -2 15 -2q15 0 51 11q88 24 128 62q18 -8 31 -24q26 -29 26 -56t-2 -31q-12 -72 -94 -111q-46 -23 -101 -23h-22q-89 6 -154 56t-99 132 q-32 77 -32 145zM343 836q0 12 8 48q10 43 43 75q34 33 80 33q40 -3 62 -28q23 -26 27 -50q1 -7 2.5 -14.5t2 -10.5t0.5 -4q0 -5 -7 -37q-7 -34 -41 -68q-35 -35 -70 -36t-51 6t-35 28q-12 15 -17 35q-4 15 -4 23z" />
<glyph unicode="&#xc0;" d="M13 101q78 30 134 67q102 66 192 181q115 151 219 437q86 251 130 455l178 30l210 -1139l178 -51l-23 -81h-576l23 72l198 36l-51 322l-292 16q-72 -199 -123 -289q-51 -89 -91 -128q-42 -41 -102 -53q-27 -3 -31 -4q-57 0 -105 36q-49 37 -68 93zM564 536l248 -31 l-88 557h-4l-97 -338q-42 -140 -59 -188zM587 1655l114 38l129 -328l-57 -33z" />
<glyph unicode="&#xc1;" d="M13 101q78 30 134 67q102 66 192 181q115 151 219 437q86 251 130 455l178 30l210 -1139l178 -51l-23 -81h-576l23 72l198 36l-51 322l-292 16q-72 -199 -123 -289q-51 -89 -91 -128q-42 -41 -102 -53q-27 -3 -31 -4q-57 0 -105 36q-49 37 -68 93zM564 536l248 -31 l-88 557h-4l-97 -338q-42 -140 -59 -188zM778 1382l121 319l109 -40l-179 -310z" />
<glyph unicode="&#xc2;" d="M13 101q78 30 134 67q102 66 192 181q115 151 219 437q86 251 130 455l178 30l210 -1139l178 -51l-23 -81h-576l23 72l198 36l-51 322l-292 16q-72 -199 -123 -289q-51 -89 -91 -128q-42 -41 -102 -53q-27 -3 -31 -4q-57 0 -105 36q-49 37 -68 93zM564 536l248 -31 l-88 557h-4l-97 -338q-42 -140 -59 -188zM590 1388l166 176l53 13l175 -181l-48 -35l-161 107h-10l-138 -109z" />
<glyph unicode="&#xc3;" d="M13 101q78 30 134 67q102 66 192 181q115 151 219 437q86 251 130 455l178 30l210 -1139l178 -51l-23 -81h-576l23 72l198 36l-51 322l-292 16q-72 -199 -123 -289q-51 -89 -91 -128q-42 -41 -102 -53q-27 -3 -31 -4q-57 0 -105 36q-49 37 -68 93zM559 1380q1 3 4 13 t5 18q6 21 26 51q38 59 86 60h7q2 -2 6 -2l218 -30h4q21 0 54 41l48 -2q-47 -141 -128 -141h-11l-219 31h-4q-25 0 -58 -47zM564 536l248 -31l-88 557h-4l-97 -338q-42 -140 -59 -188z" />
<glyph unicode="&#xc4;" d="M13 101q78 30 134 67q102 66 192 181q115 151 219 437q86 251 130 455l178 30l210 -1139l178 -51l-23 -81h-576l23 72l198 36l-51 322l-292 16q-72 -199 -123 -289q-51 -89 -91 -128q-42 -41 -102 -53q-27 -3 -31 -4q-57 0 -105 36q-49 37 -68 93zM564 536l248 -31 l-88 557h-4l-97 -338q-42 -140 -59 -188zM573 1465q0 32 25 54t58 22q35 0 60 -22q24 -21 24 -55q0 -35 -24 -56q-26 -23 -60 -23t-58 23q-25 24 -25 57zM835 1465q0 31 24 54q23 22 59 22q35 0 60 -22t25 -55q0 -32 -25 -56q-24 -23 -60 -23t-59 23q-24 24 -24 57z" />
<glyph unicode="&#xc5;" d="M13 101q78 30 134 67q102 66 192 181q115 151 219 437q86 251 130 455l178 30l210 -1139l178 -51l-23 -81h-576l23 72l198 36l-51 322l-292 16q-72 -199 -123 -289q-51 -89 -91 -128q-42 -41 -102 -53q-27 -3 -31 -4q-57 0 -105 36q-49 37 -68 93zM564 536l248 -31 l-88 557h-4l-97 -338q-42 -140 -59 -188zM629 1523q0 70 49 120q50 51 117 51q68 0 110 -45q43 -46 43 -114q0 -70 -48 -121t-117 -51q-70 0 -112 45t-42 115zM699 1535q0 -51 26 -87q27 -38 67 -38q83 1 86 113q0 53 -26 88q-27 36 -67 36q-39 0 -63 -32q-23 -30 -23 -80z " />
<glyph unicode="&#xc6;" horiz-adv-x="1468" d="M13 101q77 29 135 67q99 63 190 181q166 222 307 717q23 78 42 175l743 39l-40 -418l-87 7l-56 256l-30 3q-95 9 -288 14l-32 1l20 -462l367 17l-39 -141l-323 21l28 -477l85 7q181 19 202 24q31 39 68 138q36 97 47 164l87 -4q7 -25 7 -113q0 -195 -60 -317h-27 q-56 0 -77 2h-225q-92 0 -116 1h-172l-253 -6l23 83l217 54l-10 298l-212 12q-76 -204 -129 -298q-46 -78 -89 -120q-39 -39 -82 -47q-39 -7 -47 -7q-56 0 -105 36q-47 35 -69 93zM563 534l181 -27l-20 557h-6l-94 -338q-27 -92 -61 -192z" />
<glyph unicode="&#xc7;" horiz-adv-x="971" d="M14 488q0 328 213 576q165 192 390 190q221 0 310 -169q27 -44 25 -103v-11q-2 -59 -37 -106t-80 -59q-43 -12 -68 -12q-28 0 -49 8q13 65 13 115t-7 88q-15 79 -103 118q-36 14 -89 11q-56 -3 -118 -47q-63 -45 -101 -116q-63 -114 -77 -330q-3 -56 -3 -63 q0 -259 132 -382q79 -72 182 -71q63 0 121 24q56 23 107 74q45 45 72 87l42 -62q-23 -58 -63 -106q-90 -108 -226 -152q-9 -3 -25 -6l-40 -59q88 -76 87 -146q0 -103 -195 -160l-20 58q83 30 85 81q0 40 -72 108l74 104h-23q-58 0 -126 18q-139 43 -230 163q-90 118 -99 304 v16q-2 6 -2 17z" />
<glyph unicode="&#xc8;" horiz-adv-x="1221" d="M13 -3l23 83l218 54l125 960l-227 23l20 77q98 20 326 39q205 17 407 17h73l224 -4l-80 -411l-86 13l-32 263l-28 6q-154 29 -369 26h-33l-55 -463l455 32l-34 -143l-433 9l-62 -479l217 9q193 11 251 24q32 51 80 160q42 96 60 159l87 -11v-6q0 -132 -21 -252 q-22 -123 -56 -182q-552 3 -618 3zM604 1655l113 38l129 -328l-56 -33z" />
<glyph unicode="&#xc9;" horiz-adv-x="1221" d="M13 -3l23 83l218 54l125 960l-227 23l20 77q98 20 326 39q205 17 407 17h73l224 -4l-80 -411l-86 13l-32 263l-28 6q-154 29 -369 26h-33l-55 -463l455 32l-34 -143l-433 9l-62 -479l217 9q193 11 251 24q32 51 80 160q42 96 60 159l87 -11v-6q0 -132 -21 -252 q-22 -123 -56 -182q-552 3 -618 3zM795 1382l119 319l110 -40l-180 -310z" />
<glyph unicode="&#xca;" horiz-adv-x="1221" d="M13 -3l23 83l218 54l125 960l-227 23l20 77q98 20 326 39q205 17 407 17h73l224 -4l-80 -411l-86 13l-32 263l-28 6q-154 29 -369 26h-33l-55 -463l455 32l-34 -143l-433 9l-62 -479l217 9q193 11 251 24q32 51 80 160q42 96 60 159l87 -11v-6q0 -132 -21 -252 q-22 -123 -56 -182q-552 3 -618 3zM607 1388l164 176l54 13l175 -181l-49 -35l-160 107h-10l-137 -109z" />
<glyph unicode="&#xcb;" horiz-adv-x="1221" d="M13 -3l23 83l218 54l125 960l-227 23l20 77q98 20 326 39q205 17 407 17h73l224 -4l-80 -411l-86 13l-32 263l-28 6q-154 29 -369 26h-33l-55 -463l455 32l-34 -143l-433 9l-62 -479l217 9q193 11 251 24q32 51 80 160q42 96 60 159l87 -11v-6q0 -132 -21 -252 q-22 -123 -56 -182q-552 3 -618 3zM588 1465q0 33 24 54q25 22 60 22q33 0 58 -22t25 -55q0 -34 -25 -56q-26 -23 -58 -23q-36 0 -60 23t-24 57zM851 1465q0 33 24 54q25 22 59 22t60 -22t26 -55t-26 -56t-60 -23q-35 0 -59 23t-24 57z" />
<glyph unicode="&#xcc;" horiz-adv-x="809" d="M13 0l18 78l223 51l123 961l-226 33l19 76q224 47 464 47q68 0 156 -7l-19 -75l-199 -22l-127 -1036l218 -25l-24 -81h-626zM315 1650l114 37l129 -326l-56 -34z" />
<glyph unicode="&#xcd;" horiz-adv-x="809" d="M13 0l18 78l223 51l123 961l-226 33l19 76q224 47 464 47q68 0 156 -7l-19 -75l-199 -22l-127 -1036l218 -25l-24 -81h-626zM507 1377l119 319l110 -39l-180 -312z" />
<glyph unicode="&#xce;" horiz-adv-x="809" d="M13 0l18 78l223 51l123 961l-226 33l19 76q224 47 464 47q68 0 156 -7l-19 -75l-199 -22l-127 -1036l218 -25l-24 -81h-626zM318 1383l166 176l53 13l175 -181l-49 -35l-159 107h-10l-138 -109z" />
<glyph unicode="&#xcf;" horiz-adv-x="810" d="M13 0l18 78l223 51l123 961l-226 33l19 76q224 47 464 47q70 0 157 -7l-20 -75l-199 -22l-127 -1036l218 -25l-24 -81h-626zM301 1460q0 32 24 54q23 22 58 22t60 -22t25 -55q0 -34 -25 -56q-26 -23 -60 -23q-35 0 -58 23q-24 24 -24 57zM563 1460q0 33 24 54 q25 22 59 22q35 0 60 -22t25 -55q0 -32 -25 -56q-24 -23 -60 -23q-35 0 -59 23t-24 57z" />
<glyph unicode="&#xd0;" horiz-adv-x="1407" d="M13 0l20 77l209 52l56 412l-166 -5l26 98l154 7l57 427l-217 17l21 73q249 93 573 92q65 0 76 -1q271 -14 403 -122q61 -50 99 -118q65 -117 64 -257q0 -42 -5 -71q-27 -261 -228 -447q-187 -172 -470 -216q-119 -18 -344 -18h-328zM439 106h10q4 -2 35 -2q30 0 116 9 q213 20 351 105q142 88 197 232q37 96 37 222q0 123 -53 232q-37 78 -101 133q-61 52 -177 95q-113 41 -181 43q-71 2 -107 -4l-62 -522l251 11l-28 -99l-234 -10z" />
<glyph unicode="&#xd1;" horiz-adv-x="1525" d="M13 103q119 56 189 139q140 174 152 622q3 193 4 207l-226 54l22 76q123 25 224 34q63 6 185 11l88 -168l435 -804l71 832l-227 16l20 75q147 33 249 41q87 7 164 7q71 0 143 -6l-21 -76l-205 -54l-104 -1107l-160 -33l-555 1030h-3l-19 -513q-8 -167 -27 -247 q-21 -87 -80 -169q-80 -101 -169 -101h-7q-88 9 -125 80q-10 23 -18 54zM607 1380q1 3 1 6l7 25q6 21 26 51q38 59 85 60h6q2 -2 7 -2l218 -30h4q20 0 55 41l47 -2q-46 -141 -129 -141h-9l-219 31h-3q-24 0 -59 -47z" />
<glyph unicode="&#xd2;" horiz-adv-x="1099" d="M14 505q0 206 78 381q78 176 221 283q142 106 324 106q136 0 242 -79q108 -81 154 -198q47 -120 47 -250v-4q-3 -221 -105 -419q-115 -217 -294 -304q-99 -49 -223 -49t-228 73q-105 73 -160 193q-56 121 -56 267zM222 651q0 -233 90 -382t235 -149q143 0 235 140 q91 139 91 365q0 143 -40 256q-40 114 -121 182q-79 67 -181 67q-100 0 -171 -66q-139 -133 -138 -413zM420 1655l113 38l130 -328l-57 -33z" />
<glyph unicode="&#xd3;" horiz-adv-x="1099" d="M14 505q0 206 78 381q78 176 221 283q142 106 324 106q136 0 242 -79q108 -81 154 -198q47 -120 47 -250v-4q-3 -221 -105 -419q-115 -217 -294 -304q-99 -49 -223 -49t-228 73q-105 73 -160 193q-56 121 -56 267zM222 651q0 -233 90 -382t235 -149q143 0 235 140 q91 139 91 365q0 143 -40 256q-40 114 -121 182q-79 67 -181 67q-100 0 -171 -66q-139 -133 -138 -413zM611 1382l119 319l111 -40l-180 -310z" />
<glyph unicode="&#xd4;" horiz-adv-x="1099" d="M14 505q0 206 78 381q78 176 221 283q142 106 324 106q136 0 242 -79q108 -81 154 -198q47 -120 47 -250v-4q-3 -221 -105 -419q-115 -217 -294 -304q-99 -49 -223 -49t-228 73q-105 73 -160 193q-56 121 -56 267zM222 651q0 -233 90 -382t235 -149q143 0 235 140 q91 139 91 365q0 143 -40 256q-40 114 -121 182q-79 67 -181 67q-100 0 -171 -66q-139 -133 -138 -413zM424 1388l165 176l53 13l175 -181l-49 -35l-160 107h-10l-137 -109z" />
<glyph unicode="&#xd5;" horiz-adv-x="1099" d="M14 505q0 206 78 381q78 176 221 283q142 106 324 106q136 0 242 -79q108 -81 154 -198q47 -120 47 -250v-4q-3 -221 -105 -419q-115 -217 -294 -304q-99 -49 -223 -49t-228 73q-105 73 -160 193q-56 121 -56 267zM222 651q0 -233 90 -382t235 -149q143 0 235 140 q91 139 91 365q0 143 -40 256q-40 114 -121 182q-79 67 -181 67q-100 0 -171 -66q-139 -133 -138 -413zM392 1380q1 3 4 13t5 18q6 21 26 51q38 59 86 60h7q2 -2 5 -2l219 -30h3q20 0 55 41l47 -2q-47 -141 -127 -141h-12l-218 31h-3q-24 0 -59 -47z" />
<glyph unicode="&#xd6;" horiz-adv-x="1099" d="M14 505q0 206 78 381q78 176 221 283q142 106 324 106q136 0 242 -79q108 -81 154 -198q47 -120 47 -250v-4q-3 -221 -105 -419q-115 -217 -294 -304q-99 -49 -223 -49t-228 73q-105 73 -160 193q-56 121 -56 267zM222 651q0 -233 90 -382t235 -149q143 0 235 140 q91 139 91 365q0 143 -40 256q-40 114 -121 182q-79 67 -181 67q-100 0 -171 -66q-139 -133 -138 -413zM406 1465q0 31 24 54q23 22 58 22q34 0 59 -22t25 -55q0 -34 -25 -56q-26 -23 -59 -23q-35 0 -58 23q-24 24 -24 57zM668 1465q0 32 25 54t58 22q35 0 60 -22t25 -55 q0 -32 -25 -56q-24 -23 -60 -23q-34 0 -58 23q-25 24 -25 57z" />
<glyph unicode="&#xd7;" horiz-adv-x="526" d="M13 305l171 148l-133 154l89 65l132 -152l182 158l53 -83l-172 -147l136 -157l-89 -64l-132 153l-182 -157z" />
<glyph unicode="&#xd8;" horiz-adv-x="1100" d="M15 521q0 189 78 365t221 283q142 106 324 106q85 0 163 -32l30 53l142 8l-67 -128q86 -74 130 -187q45 -115 45 -241v-4q-3 -221 -105 -419q-115 -217 -294 -304q-99 -49 -206 -49q-106 0 -192 42l-50 -87l-143 -8l92 165q-90 98 -129 196.5t-39 240.5zM223 651 q0 -231 89 -379l413 781q-86 77 -190 77t-174 -66q-139 -133 -138 -413zM360 205q82 -86 187 -85q144 0 236 140q91 139 91 363t-96 369q-33 -64 -98 -191t-105 -205t-100 -188t-115 -203z" />
<glyph unicode="&#xd9;" horiz-adv-x="1445" d="M13 1123l22 76q156 28 288 38q109 8 212 8q98 0 116 -2l-18 -77l-199 -28l-48 -393q0 -10 -2 -24q-1 -4 -3.5 -29t-5.5 -45q-3 -21 -5 -51l-3 -30q-2 -19 -2 -78q0 -52 4 -83q6 -42 14 -75q22 -84 94 -142q76 -65 178 -65q195 0 281 167q38 75 63 244l74 577l-225 9 l18 77q209 46 440 46q28 0 120 -4l-20 -76l-207 -67l-85 -579q-44 -289 -155 -403q-52 -55 -146 -102q-92 -46 -221 -46h-8q-193 9 -299 117q-121 121 -122 342q0 60 26 277l46 385zM556 1655l114 38l129 -328l-56 -33z" />
<glyph unicode="&#xda;" horiz-adv-x="1445" d="M13 1123l22 76q156 28 288 38q109 8 212 8q98 0 116 -2l-18 -77l-199 -28l-48 -393q0 -10 -2 -24q-1 -4 -3.5 -29t-5.5 -45q-3 -21 -5 -51l-3 -30q-2 -19 -2 -78q0 -52 4 -83q6 -42 14 -75q22 -84 94 -142q76 -65 178 -65q195 0 281 167q38 75 63 244l74 577l-225 9 l18 77q209 46 440 46q28 0 120 -4l-20 -76l-207 -67l-85 -579q-44 -289 -155 -403q-52 -55 -146 -102q-92 -46 -221 -46h-8q-193 9 -299 117q-121 121 -122 342q0 60 26 277l46 385zM748 1382l119 319l111 -40l-181 -310z" />
<glyph unicode="&#xdb;" horiz-adv-x="1445" d="M13 1123l22 76q156 28 288 38q109 8 212 8q98 0 116 -2l-18 -77l-199 -28l-48 -393q0 -10 -2 -24q-1 -4 -3.5 -29t-5.5 -45q-3 -21 -5 -51l-3 -30q-2 -19 -2 -78q0 -52 4 -83q6 -42 14 -75q22 -84 94 -142q76 -65 178 -65q195 0 281 167q38 75 63 244l74 577l-225 9 l18 77q209 46 440 46q28 0 120 -4l-20 -76l-207 -67l-85 -579q-44 -289 -155 -403q-52 -55 -146 -102q-92 -46 -221 -46h-8q-193 9 -299 117q-121 121 -122 342q0 60 26 277l46 385zM560 1388l165 176l53 13l175 -181l-48 -35l-161 107h-10l-137 -109z" />
<glyph unicode="&#xdc;" horiz-adv-x="1445" d="M13 1123l22 76q156 28 288 38q109 8 212 8q98 0 116 -2l-18 -77l-199 -28l-48 -393q0 -10 -2 -24q-1 -4 -3.5 -29t-5.5 -45q-3 -21 -5 -51l-3 -30q-2 -19 -2 -78q0 -52 4 -83q6 -42 14 -75q22 -84 94 -142q76 -65 178 -65q195 0 281 167q38 75 63 244l74 577l-225 9 l18 77q209 46 440 46q28 0 120 -4l-20 -76l-207 -67l-85 -579q-44 -289 -155 -403q-52 -55 -146 -102q-92 -46 -221 -46h-8q-193 9 -299 117q-121 121 -122 342q0 60 26 277l46 385zM542 1465q0 31 24 54q23 22 58 22t60 -22t25 -55q0 -34 -25 -56q-26 -23 -60 -23 q-35 0 -58 23q-24 24 -24 57zM804 1465q0 32 25 54t58 22q35 0 60 -22t25 -55q0 -32 -25 -56q-24 -23 -60 -23q-34 0 -58 23q-25 24 -25 57z" />
<glyph unicode="&#xdd;" horiz-adv-x="1097" d="M13 1111q15 75 65 110q52 36 118 41q4 0 6 2h5q161 0 244 -178q71 -153 68 -384v-38h16q34 146 92 276q55 122 107 192q49 65 104 92q53 26 98 26h10q5 -2 10 -1q57 -6 89 -44q33 -39 33 -85q0 -20 -4 -33q-64 -3 -133 -24q-78 -23 -137 -68q-70 -57 -111 -126 q-38 -65 -80 -189q-44 -148 -65 -321l-29 -253l213 -25l-21 -81h-626l19 83l221 46l39 294q10 67 10 146q0 180 -67 324q-92 190 -294 218zM583 1382l120 319l110 -40l-180 -310z" />
<glyph unicode="&#xde;" horiz-adv-x="1158" d="M13 0l17 78l222 52l126 969l-226 32l17 74q280 51 465 50q68 0 162 -6l-19 -78l-204 -21l-12 -111q84 8 144 8q212 0 323 -90t111 -261q0 -173 -157 -303q-163 -134 -459 -161l-7 83q238 27 348 138q82 84 81 212t-92 220q-90 92 -243 92q-28 0 -58 -6l-102 -863l218 -28 l-25 -80h-630z" />
<glyph unicode="&#xdf;" horiz-adv-x="1271" d="M13 -248q0 70 55 116q96 -96 197 -96q31 0 56 11q22 10 31 32q16 41 24 85t10 84t6 137.5t11 191.5l33 462l-111 -9l15 105l105 -16q16 72 17 76q32 116 94 188q139 180 453 180q73 0 132.5 -50.5t59.5 -138.5q0 -64 -33 -123t-79.5 -102.5t-93.5 -81.5t-80 -76t-33 -71 q0 -42 29 -83q43 -52 76 -79q3 -3 30 -25t42 -34q30 -25 54 -46q46 -40 68 -83q21 -40 24 -76v-12q0 -59 -46 -120q-48 -58 -129 -96q-80 -37 -155 -37q-142 -1 -200 69q-28 32 -28 82q0 49 52 91q27 20 62 26q56 -163 163 -176h8q2 -3 16 -1q20 2 46 14q33 15 51 36 q16 25 16 52v7q-1 1 -4 20q-6 42 -39 82.5t-75.5 73.5t-85 67.5t-71 77.5t-28.5 89t20.5 90.5t51.5 78t67 71.5t67 72t51.5 79t20.5 92q0 75 -36 120.5t-90 43.5q-90 0 -159 -39t-99 -109q-36 -74 -47 -223l-5 -45q-33 -531 -43 -651q-12 -147 -37 -239q-25 -93 -79 -158 q-70 -88 -177 -123q-45 -12 -103 -14q-47 -2 -85 20q-63 38 -63 111z" />
<glyph unicode="&#xe0;" horiz-adv-x="859" d="M13 225q0 124 57 280q58 158 153 274t191 116q94 0 144 -75h9l14 89l11 9l119 -37l-72 -390l-30 -238q-7 -55 -7 -85q0 -52 44 -52q27 0 72 50q48 52 81 109l41 -35q-56 -140 -121 -205q-66 -66 -171 -66q-49 0 -77 37q-26 35 -26 107t36 174h-13q-52 -125 -138 -217 q-85 -91 -168 -91t-116 62q-33 61 -33 184zM168 317q0 -120 12 -152q12 -31 52 -31q71 0 166 152q93 149 134 374q-15 42 -59 76t-92 34q-47 0 -92 -48q-44 -47 -70 -127q-51 -157 -51 -278zM291 1303l112 36l129 -326l-56 -35z" />
<glyph unicode="&#xe1;" horiz-adv-x="859" d="M13 225q0 124 57 280q58 158 153 274t191 116q94 0 144 -75h9l14 89l11 9l119 -37l-72 -390l-30 -238q-7 -55 -7 -85q0 -52 44 -52q27 0 72 50q48 52 81 109l41 -35q-56 -140 -121 -205q-66 -66 -171 -66q-49 0 -77 37q-26 35 -26 107t36 174h-13q-52 -125 -138 -217 q-85 -91 -168 -91t-116 62q-33 61 -33 184zM168 317q0 -120 12 -152q12 -31 52 -31q71 0 166 152q93 149 134 374q-15 42 -59 76t-92 34q-47 0 -92 -48q-44 -47 -70 -127q-51 -157 -51 -278zM481 1029l119 318l111 -38l-181 -311z" />
<glyph unicode="&#xe2;" horiz-adv-x="859" d="M13 225q0 124 57 280q58 158 153 274t191 116q94 0 144 -75h9l14 89l11 9l119 -37l-72 -390l-30 -238q-7 -55 -7 -85q0 -52 44 -52q27 0 72 50q48 52 81 109l41 -35q-56 -140 -121 -205q-66 -66 -171 -66q-49 0 -77 37q-26 35 -26 107t36 174h-13q-52 -125 -138 -217 q-85 -91 -168 -91t-116 62q-33 61 -33 184zM168 317q0 -120 12 -152q12 -31 52 -31q71 0 166 152q93 149 134 374q-15 42 -59 76t-92 34q-47 0 -92 -48q-44 -47 -70 -127q-51 -157 -51 -278zM293 1036l165 176l54 12l174 -181l-49 -35l-160 107h-9l-138 -109z" />
<glyph unicode="&#xe3;" horiz-adv-x="859" d="M13 225q0 124 57 280q58 158 153 274t191 116q94 0 144 -75h9l14 89l11 9l119 -37l-72 -390l-30 -238q-7 -55 -7 -85q0 -52 44 -52q27 0 72 50q48 52 81 109l41 -35q-56 -140 -121 -205q-66 -66 -171 -66q-49 0 -77 37q-26 35 -26 107t36 174h-13q-52 -125 -138 -217 q-85 -91 -168 -91t-116 62q-33 61 -33 184zM168 317q0 -120 12 -152q12 -31 52 -31q71 0 166 152q93 149 134 374q-15 42 -59 76t-92 34q-47 0 -92 -48q-44 -47 -70 -127q-51 -157 -51 -278zM263 1027q1 3 4 13t5 18q7 25 24 52q38 59 86 58h6q2 -2 7 -2l218 -29h3 q21 0 56 41l47 -2q-23 -71 -55.5 -106t-73.5 -34h-11l-219 30h-2q-25 0 -58 -47z" />
<glyph unicode="&#xe4;" horiz-adv-x="859" d="M13 225q0 124 57 280q58 158 153 274t191 116q94 0 144 -75h9l14 89l11 9l119 -37l-72 -390l-30 -238q-7 -55 -7 -85q0 -52 44 -52q27 0 72 50q48 52 81 109l41 -35q-56 -140 -121 -205q-66 -66 -171 -66q-49 0 -77 37q-26 35 -26 107t36 174h-13q-52 -125 -138 -217 q-85 -91 -168 -91t-116 62q-33 61 -33 184zM168 317q0 -120 12 -152q12 -31 52 -31q71 0 166 152q93 149 134 374q-15 42 -59 76t-92 34q-47 0 -92 -48q-44 -47 -70 -127q-51 -157 -51 -278zM275 1111q0 33 24 55q22 21 58 21q35 0 60 -22t25 -55t-25 -55q-26 -23 -60 -23 q-35 0 -58 23q-24 24 -24 56zM537 1111q0 33 25 55q24 21 58 21q36 0 61 -22t25 -55q0 -31 -25 -55q-24 -23 -61 -23q-34 0 -58 23q-25 24 -25 56z" />
<glyph unicode="&#xe5;" horiz-adv-x="859" d="M13 225q0 124 57 280q58 158 153 274t191 116q94 0 144 -75h9l14 89l11 9l119 -37l-72 -390l-30 -238q-7 -55 -7 -85q0 -52 44 -52q27 0 72 50q48 52 81 109l41 -35q-56 -140 -121 -205q-66 -66 -171 -66q-49 0 -77 37q-26 35 -26 107t36 174h-13q-52 -125 -138 -217 q-85 -91 -168 -91t-116 62q-33 61 -33 184zM168 317q0 -120 12 -152q12 -31 52 -31q71 0 166 152q93 149 134 374q-15 42 -59 76t-92 34q-47 0 -92 -48q-44 -47 -70 -127q-51 -157 -51 -278zM332 1171q0 70 48 120q48 49 117 49q68 0 110 -44t42 -114q0 -68 -47 -120 q-46 -51 -117 -51q-69 0 -111 45t-42 115zM402 1182q0 -49 26 -87q25 -37 68 -37q84 0 83 112q0 53 -26 88q-27 36 -66 36t-62 -32t-23 -80z" />
<glyph unicode="&#xe6;" horiz-adv-x="1043" d="M13 218q0 129 57 287q55 152 155 274q95 116 199 116q54 0 97 -48q43 -47 61 -121q124 171 276 171q78 0 122 -47t44 -132q0 -84 -69 -174t-167 -151t-190 -88q2 -106 40 -153q39 -48 109 -48q130 0 220 142l36 -32q-33 -99 -121 -172t-196 -73q-107 0 -171 70t-73 196 q-63 -114 -137 -185t-148 -71q-144 0 -144 239zM168 294q0 -97 12 -129q12 -31 51 -31q72 0 167 152q93 149 134 374q-15 42 -59 76t-87 34q-46 0 -87 -40q-40 -39 -68 -102q-27 -61 -45 -149q-18 -87 -18 -185zM600 377q126 47 199 135t73 184q0 95 -79 95 q-166 0 -193 -414z" />
<glyph unicode="&#xe7;" horiz-adv-x="620" d="M14 322q0 132 36 227q35 100 94 178q57 74 131 120q75 46 153 46q79 0 126 -46t47 -115q0 -68 -33 -100q-32 -31 -106 -40q0 17 -10 71q-19 103 -60 127q-15 7 -32 6q-91 0 -137 -109q-47 -111 -47 -276q0 -167 41 -239q42 -74 142 -74h2q46 0 95 35q48 34 80 94l36 -32 q-19 -72 -89 -136t-154 -83l-33 -51q88 -76 87 -146q0 -103 -196 -160l-19 58q84 30 84 81q0 40 -72 108l74 103q-58 13 -98.5 33.5t-74.5 59t-50.5 103.5t-16.5 157z" />
<glyph unicode="&#xe8;" horiz-adv-x="616" d="M13 293q0 150 58 287q60 140 156 228q98 89 203 89q78 0 123 -48q44 -47 44 -123q0 -144 -148 -249q-122 -87 -277 -136q6 -237 163 -237q56 0 111 40q52 38 95 102l37 -32q-34 -99 -123 -173q-87 -72 -201 -72q-112 0 -177 87q-64 86 -64 237zM173 414q272 101 272 284 q0 46 -20 69.5t-60 22.5q-168 0 -192 -376zM246 1315l113 36l130 -327l-57 -34z" />
<glyph unicode="&#xe9;" horiz-adv-x="686" d="M13 293q0 150 58 287q60 140 156 228q98 89 203 89q78 0 123 -48q44 -47 44 -123q0 -144 -148 -249q-122 -87 -277 -136q6 -237 163 -237q56 0 111 40q52 38 95 102l37 -32q-34 -99 -123 -173q-87 -72 -201 -72q-112 0 -177 87q-64 86 -64 237zM173 414q272 101 272 284 q0 46 -20 69.5t-60 22.5q-168 0 -192 -376zM337 1041l119 318l111 -39l-179 -310z" />
<glyph unicode="&#xea;" horiz-adv-x="661" d="M13 293q0 150 58 287q60 140 156 228q98 89 203 89q78 0 123 -48q44 -47 44 -123q0 -144 -148 -249q-122 -87 -277 -136q6 -237 163 -237q56 0 111 40q52 38 95 102l37 -32q-34 -99 -123 -173q-87 -72 -201 -72q-112 0 -177 87q-64 86 -64 237zM173 414q272 101 272 284 q0 46 -20 69.5t-60 22.5q-168 0 -192 -376zM209 1047l165 177l54 12l174 -181l-48 -36l-160 108h-10l-137 -109z" />
<glyph unicode="&#xeb;" horiz-adv-x="681" d="M13 293q0 150 58 287q60 140 156 228q98 89 203 89q78 0 123 -48q44 -47 44 -123q0 -144 -148 -249q-122 -87 -277 -136q6 -237 163 -237q56 0 111 40q52 38 95 102l37 -32q-34 -99 -123 -173q-87 -72 -201 -72q-112 0 -177 87q-64 86 -64 237zM173 414q272 101 272 284 q0 46 -20 69.5t-60 22.5q-168 0 -192 -376zM232 1122q0 34 24 56q22 21 59 21q33 0 58 -22t25 -56q0 -33 -25 -55q-26 -23 -58 -23q-36 0 -59 23q-24 24 -24 56zM494 1122q0 34 24 56q22 21 59 21q34 0 59 -22q26 -23 26 -55t-26 -56q-24 -23 -59 -23q-36 0 -59 23 q-24 24 -24 56z" />
<glyph unicode="&#xec;" horiz-adv-x="603" d="M13 631q43 113 128 195q83 80 166 80q94 0 91 -140q0 -23 -17 -197l-28 -315q-5 -36 -5 -73q0 -58 34 -58q35 0 82 34q49 35 78 89l42 -29q-90 -240 -288 -240q-62 0 -88 38q-25 37 -25 93q0 61 13 188l36 315q3 34 3 65q0 78 -36 78q-34 0 -138 -155zM98 1331l112 36 l129 -326l-55 -35z" />
<glyph unicode="&#xed;" horiz-adv-x="603" d="M13 631q43 113 128 195q83 80 166 80q94 0 91 -140q0 -23 -17 -197l-28 -315q-5 -36 -5 -73q0 -58 34 -58q35 0 82 34q49 35 78 89l42 -29q-90 -240 -288 -240q-62 0 -88 38q-25 37 -25 93q0 61 13 188l36 315q3 34 3 65q0 78 -36 78q-34 0 -138 -155zM289 1057l118 318 l112 -39l-182 -310z" />
<glyph unicode="&#xee;" horiz-adv-x="603" d="M13 631q43 113 128 195q83 80 166 80q94 0 91 -140q0 -23 -17 -197l-28 -315q-5 -36 -5 -73q0 -58 34 -58q35 0 82 34q49 35 78 89l42 -29q-90 -240 -288 -240q-62 0 -88 38q-25 37 -25 93q0 61 13 188l36 315q3 34 3 65q0 78 -36 78q-34 0 -138 -155zM101 1064l165 175 l52 13l176 -181l-49 -35l-160 106h-10l-138 -108z" />
<glyph unicode="&#xef;" horiz-adv-x="603" d="M13 631q43 113 128 195q83 80 166 80q94 0 91 -140q0 -23 -17 -197l-28 -315q-5 -36 -5 -73q0 -58 34 -58q35 0 82 34q49 35 78 89l42 -29q-90 -240 -288 -240q-62 0 -88 38q-25 37 -25 93q0 61 13 188l36 315q3 34 3 65q0 78 -36 78q-34 0 -138 -155zM83 1139 q0 33 23 55q22 21 59 21q34 0 59 -22t25 -55t-25 -55q-26 -23 -59 -23q-36 0 -59 23t-23 56zM344 1139q0 34 24 55t60 21q34 0 60 -22t26 -55q0 -32 -26 -55t-60 -23q-36 0 -60 23t-24 56z" />
<glyph unicode="&#xf0;" horiz-adv-x="782" d="M13 353q0 50 5 89q25 202 146 320q122 119 283 119q46 0 86 -23q39 -22 49 -67h6q-19 96 -82 257l-207 -40l19 77l160 32q-36 73 -108 160h108q75 -63 124 -132l141 31l-19 -75l-84 -16q120 -199 122 -477q0 -329 -159 -503q-120 -131 -276 -131q-103 0 -174 50 q-139 97 -140 329zM184 377q0 -146 46 -226q46 -81 138 -81q177 0 219 346q5 36 5 86q0 129 -46 206t-120 82h-7q-99 0 -154 -73t-76 -228q-8 -50 -5 -112z" />
<glyph unicode="&#xf1;" horiz-adv-x="1018" d="M13 651q39 106 125 189q84 81 175 81q78 0 77 -103q0 -47 -13 -105q-10 -42 -18 -86q-12 -52 -10 -54l11 -6q45 138 134 234q88 96 168 96t119 -41q39 -40 39 -106q0 -64 -9 -135l-44 -362q-7 -49 -7 -72q0 -60 35 -60q34 0 83 35q48 34 78 90l43 -30q-90 -240 -304 -240 q-98 0 -98 125q0 17 21 194l23 193q13 105 15 161q0 37 -14 55t-42 17q-157 0 -246 -377q-6 -208 -43 -288q-39 -84 -127 -84q-7 0 -42 4l-14 27l82 385l22 232q3 42 3 76q0 37 -9 55t-28 17q-18 0 -62 -50t-75 -105zM370 1055q1 3 4 13t5 18q6 22 26 50q38 59 86 60h6 q2 -2 7 -2l219 -30h2q25 0 55 41l47 -2q-47 -142 -127 -139h-12l-218 30h-4q-29 0 -50 -36l-9 -11z" />
<glyph unicode="&#xf2;" horiz-adv-x="694" d="M13 340q0 154 53 280t143 201q91 76 201 76t187 -102q77 -103 77 -249q0 -147 -46 -272q-46 -126 -138 -213t-213 -87t-193 105q-71 104 -71 261zM154 460q0 -201 92 -314q47 -57 100 -56q56 2 99 49q84 97 84 285q0 199 -89 306q-45 52 -102 54q-55 1 -103 -51 q-81 -92 -81 -273zM204 1298l112 38l131 -328l-57 -35z" />
<glyph unicode="&#xf3;" horiz-adv-x="694" d="M13 340q0 154 53 280t143 201q91 76 201 76t187 -102q77 -103 77 -249q0 -147 -46 -272q-46 -126 -138 -213t-213 -87t-193 105q-71 104 -71 261zM154 460q0 -201 92 -314q47 -57 100 -56q56 2 99 49q84 97 84 285q0 199 -89 306q-45 52 -102 54q-55 1 -103 -51 q-81 -92 -81 -273zM395 1024l120 318l110 -38l-180 -310z" />
<glyph unicode="&#xf4;" horiz-adv-x="695" d="M14 340q0 154 53 280t143 201q91 76 201 76q111 0 187 -102q77 -103 77 -249q0 -147 -46 -272q-46 -126 -137.5 -213t-213.5 -87q-121 0 -193 105q-71 104 -71 261zM155 460q0 -201 92 -314q47 -57 100 -56q56 2 99 49q84 97 84 285q0 199 -89 306q-45 52 -102 54 q-55 1 -103 -51q-81 -92 -81 -273zM208 1031l165 176l54 13l174 -181l-49 -36l-160 108h-9l-137 -110z" />
<glyph unicode="&#xf5;" horiz-adv-x="695" d="M14 340q0 154 53 280t143 201q91 76 201 76q111 0 187 -102q77 -103 77 -249q0 -147 -46 -272q-46 -126 -137.5 -213t-213.5 -87q-121 0 -193 105q-71 104 -71 261zM155 460q0 -201 92 -314q47 -57 100 -56q56 2 99 49q84 97 84 285q0 199 -89 306q-45 52 -102 54 q-55 1 -103 -51q-81 -92 -81 -273zM177 1022q1 3 4 13t5 18q6 22 25 52q38 59 86 58h7q2 -2 7 -2l217 -29h3q26 0 56 41l47 -2q-23 -70 -55 -105.5t-73 -34.5h-11l-219 31h-3q-29 0 -50 -36l-8 -11z" />
<glyph unicode="&#xf6;" horiz-adv-x="695" d="M14 340q0 154 53 280t143 201q91 76 201 76q111 0 187 -102q77 -103 77 -249q0 -147 -46 -272q-46 -126 -137.5 -213t-213.5 -87q-121 0 -193 105q-71 104 -71 261zM155 460q0 -201 92 -314q47 -57 100 -56q56 2 99 49q84 97 84 285q0 199 -89 306q-45 52 -102 54 q-55 1 -103 -51q-81 -92 -81 -273zM190 1106q0 34 24 55t60 21q33 0 58 -22t25 -55t-25 -55q-26 -23 -58 -23q-36 0 -60 23t-24 56zM452 1106q0 34 24 55t59 21q34 0 60 -22t26 -55q0 -32 -26 -55t-60 -23q-35 0 -59 23t-24 56z" />
<glyph unicode="&#xf7;" horiz-adv-x="855" d="M13 446l27 102h796l-28 -102h-795zM255 188q0 31 2 35q6 47 46 78t86 31q45 0 75 -27q29 -26 29 -67q0 -13 -1 -17q-9 -50 -49 -84t-87 -34q-45 0 -73 28t-28 57zM344 740q0 31 1 35q6 46 45 78q40 32 86 32q47 0 76 -28t29 -67q0 -13 -2 -17q-9 -52 -48 -85 q-41 -35 -87 -35q-48 0 -74 29t-26 58z" />
<glyph unicode="&#xf8;" horiz-adv-x="710" d="M13 -84l89 164q-73 103 -73 259q0 155 53 281t143 201q91 76 196 76q49 0 105 -28l24 46l129 8l-68 -129q77 -100 79 -247q1 -144 -46 -273q-46 -126 -138 -213t-210 -87q-60 0 -112 28l-42 -79zM170 460q0 -126 40 -227l257 483q-47 68 -108 68q-62 0 -108 -51 q-81 -92 -81 -273zM248 163q52 -74 110 -73q60 1 103 49q84 97 84 285q0 119 -40 220z" />
<glyph unicode="&#xf9;" horiz-adv-x="991" d="M13 623q44 115 128 196t166 81q99 0 96 -130q0 -47 -26 -209l-28 -176q-14 -80 -14 -143q0 -59 12 -75q13 -17 43 -17q72 0 130 87q58 88 105 290q3 212 37 290q35 83 119 83q23 0 42 -5l16 -28l-70 -383l-17 -200q-8 -83 -7 -106q2 -33 9 -43q9 -12 33 -12q23 0 70 47 q46 46 76 100l39 -28q-78 -267 -293 -266q-87 0 -89 122q0 63 28 165l-11 2q-49 -136 -124 -214q-74 -77 -154 -77q-81 0 -120 42t-39 102q0 62 9 138l53 346q7 52 6 74q0 61 -34 62q-47 0 -143 -146zM364 1331l113 36l130 -326l-57 -35z" />
<glyph unicode="&#xfa;" horiz-adv-x="991" d="M13 623q44 115 128 196t166 81q99 0 96 -130q0 -47 -26 -209l-28 -176q-14 -80 -14 -143q0 -59 12 -75q13 -17 43 -17q72 0 130 87q58 88 105 290q3 212 37 290q35 83 119 83q23 0 42 -5l16 -28l-70 -383l-17 -200q-8 -83 -7 -106q2 -33 9 -43q9 -12 33 -12q23 0 70 47 q46 46 76 100l39 -28q-78 -267 -293 -266q-87 0 -89 122q0 63 28 165l-11 2q-49 -136 -124 -214q-74 -77 -154 -77q-81 0 -120 42t-39 102q0 62 9 138l53 346q7 52 6 74q0 61 -34 62q-47 0 -143 -146zM555 1057l120 318l110 -39l-180 -310z" />
<glyph unicode="&#xfb;" horiz-adv-x="991" d="M13 623q44 115 128 196t166 81q99 0 96 -130q0 -47 -26 -209l-28 -176q-14 -80 -14 -143q0 -59 12 -75q13 -17 43 -17q72 0 130 87q58 88 105 290q3 212 37 290q35 83 119 83q23 0 42 -5l16 -28l-70 -383l-17 -200q-8 -83 -7 -106q2 -33 9 -43q9 -12 33 -12q23 0 70 47 q46 46 76 100l39 -28q-78 -267 -293 -266q-87 0 -89 122q0 63 28 165l-11 2q-49 -136 -124 -214q-74 -77 -154 -77q-81 0 -120 42t-39 102q0 62 9 138l53 346q7 52 6 74q0 61 -34 62q-47 0 -143 -146zM367 1064l165 175l54 13l174 -181l-48 -35l-161 106h-9l-137 -108z" />
<glyph unicode="&#xfc;" horiz-adv-x="991" d="M13 623q44 115 128 196t166 81q99 0 96 -130q0 -47 -26 -209l-28 -176q-14 -80 -14 -143q0 -59 12 -75q13 -17 43 -17q72 0 130 87q58 88 105 290q3 212 37 290q35 83 119 83q23 0 42 -5l16 -28l-70 -383l-17 -200q-8 -83 -7 -106q2 -33 9 -43q9 -12 33 -12q23 0 70 47 q46 46 76 100l39 -28q-78 -267 -293 -266q-87 0 -89 122q0 63 28 165l-11 2q-49 -136 -124 -214q-74 -77 -154 -77q-81 0 -120 42t-39 102q0 62 9 138l53 346q7 52 6 74q0 61 -34 62q-47 0 -143 -146zM349 1139q0 34 24 55t60 21q34 0 59 -22t25 -55t-25 -55 q-26 -23 -59 -23q-36 0 -60 23t-24 56zM612 1139q0 33 24 55q22 21 58 21q34 0 60 -22t26 -55q0 -32 -26 -55t-60 -23q-35 0 -58 23q-24 24 -24 56z" />
<glyph unicode="&#xfd;" horiz-adv-x="856" d="M13 629q39 111 114 190q78 83 151 83q71 0 109 -50q37 -49 52 -159l61 -488l5 -43h9q115 172 137 233q21 58 26 95q4 31 4 95q0 59 -41 138q-40 77 -94 125q18 23 55 41q34 17 71 17q66 0 116 -60q49 -59 49 -139q0 -135 -74 -278q-75 -146 -259 -383q-19 -178 -119 -303 q-99 -124 -230 -124q-55 0 -98 32q-42 31 -42 79v5q5 45 17 70q12 24 48 54q77 -73 151 -71q75 2 108 42q35 43 35 146q0 59 -10 133l-64 501q-9 66 -34 100q-27 38 -58 38q-30 0 -70 -45q-41 -46 -76 -111zM505 1057l120 318l109 -39l-179 -310z" />
<glyph unicode="&#xfe;" horiz-adv-x="914" d="M13 -362l19 69l132 42l145 1138l40 288l-139 26l11 75l288 23l17 -21l-62 -439l-68 -279l12 -2q57 144 131 233q76 91 160 91t139 -92q56 -94 56 -245q0 -150 -44 -267q-44 -116 -121 -175q-144 -113 -328 -116l-10 74q70 8 100 18q43 14 85 40q47 29 77 76 q69 109 69 332q0 101 -20 149q-19 46 -65 46q-78 0 -157 -148q-80 -150 -109 -395l-63 -449l182 -21l-17 -71h-460z" />
<glyph unicode="&#xff;" horiz-adv-x="856" d="M13 629q39 111 114 190q78 83 151 83q71 0 109 -50q37 -49 52 -159l61 -488l5 -43h9q115 172 137 233q21 58 26 95q4 31 4 95q0 59 -41 138q-40 77 -94 125q18 23 55 41q34 17 71 17q66 0 116 -60q49 -59 49 -139q0 -135 -74 -278q-75 -146 -259 -383q-19 -178 -119 -303 q-99 -124 -230 -124q-55 0 -98 32q-42 31 -42 79v5q5 45 17 70q12 24 48 54q77 -73 151 -71q75 2 108 42q35 43 35 146q0 59 -10 133l-64 501q-9 66 -34 100q-27 38 -58 38q-30 0 -70 -45q-41 -46 -76 -111zM300 1139q0 33 24 55q22 21 58 21q35 0 60 -22q24 -21 24 -55 t-24 -55q-26 -23 -60 -23q-35 0 -58 23q-24 24 -24 56zM562 1139q0 33 24 55q22 21 59 21q35 0 60 -22q24 -21 24 -55q0 -32 -24 -55t-60 -23t-59 23q-24 24 -24 56z" />
<glyph unicode="&#x152;" horiz-adv-x="1785" d="M164 505q0 206 78 381q78 176 221 283q142 106 324 106q112 0 203 -53q29 5 79 11q212 19 400 19l297 -6l-80 -411l-86 13l-32 263l-28 6q-145 29 -369 26h-33l-55 -463l455 34l-34 -145l-433 9l-62 -480l217 10q193 11 251 24q32 51 80 160q42 96 60 159l87 -11v-6 q0 -132 -21 -252q-22 -123 -56 -182q-552 3 -618 3l-202 7q-90 -38 -199 -38q-124 0 -228 73q-105 73 -160 193q-56 121 -56 267zM373 639q0 -145 40 -264q41 -121 114 -187q76 -68 169 -68q69 0 125 32l104 842q-28 39 -63 69q-79 67 -181 67t-170 -67q-69 -68 -104 -175 q-34 -105 -34 -249z" />
<glyph unicode="&#x153;" horiz-adv-x="1319" d="M253 225q0 124 57 280q58 158 153 274t191 116q132 0 201 -157h10q30 39 65 70q98 89 203 89q78 0 123 -48q44 -47 44 -123q0 -144 -148 -249q-120 -86 -276 -136q6 -238 162 -238q116 0 206 143l37 -32q-34 -99 -123 -173q-87 -72 -201 -72q-113 0 -177 87 q-63 85 -64 231h-8q-52 -125 -138 -217q-85 -91 -168 -91t-116 62q-33 61 -33 184zM407 288q0 -90 13 -122q14 -34 52 -34q72 0 167 153q94 152 133 375q-15 42 -59 76t-92 34q-47 0 -92 -48q-44 -47 -70 -127q-52 -155 -52 -307zM876 414q272 101 272 284q0 46 -20 69.5 t-60 22.5q-168 0 -192 -376z" />
<glyph unicode="&#x178;" horiz-adv-x="1123" d="M-71 1111q13 75 61 110q50 36 117 41h11q161 0 250 -176q58 -116 76 -274q7 -98 5 -110l2 -38h16q30 151 91 298q115 287 291 287h18q58 -6 91 -45q34 -40 36 -86q1 -20 -3 -31q-64 -3 -132 -24q-77 -23 -135 -68q-69 -57 -106 -126q-36 -65 -74 -189q-39 -148 -54 -321 l-20 -253l214 -25l-18 -81h-626l16 83l219 46l29 294q8 67 5 146q-6 180 -78 324q-98 190 -302 218zM295 1435q-1 33 23 55t57 22q35 0 61 -22q25 -21 26 -56t-22 -56q-24 -22 -59 -22q-33 0 -59 22t-27 57zM557 1435q-1 33 23 55t57 22q35 0 61 -22t27 -55q1 -35 -23 -57 t-59 -22q-33 0 -59 22t-27 57z" />
<glyph unicode="&#x2c6;" horiz-adv-x="474" d="M40 1359l166 177l52 12l176 -181l-49 -35l-160 106h-10l-138 -107z" />
<glyph unicode="&#x2dc;" horiz-adv-x="539" d="M41 1351q1 3 4 12.5t5 17.5q6 22 25 51q38 59 86 60h7q2 -2 6 -2l218 -29h4q21 0 54 40l48 -1q-47 -141 -128 -141h-11l-219 30h-3q-24 0 -59 -47z" />
<glyph unicode="&#x2000;" horiz-adv-x="850" />
<glyph unicode="&#x2001;" horiz-adv-x="1701" />
<glyph unicode="&#x2002;" horiz-adv-x="850" />
<glyph unicode="&#x2003;" horiz-adv-x="1701" />
<glyph unicode="&#x2004;" horiz-adv-x="567" />
<glyph unicode="&#x2005;" horiz-adv-x="425" />
<glyph unicode="&#x2006;" horiz-adv-x="283" />
<glyph unicode="&#x2007;" horiz-adv-x="283" />
<glyph unicode="&#x2008;" horiz-adv-x="212" />
<glyph unicode="&#x2009;" horiz-adv-x="340" />
<glyph unicode="&#x200a;" horiz-adv-x="94" />
<glyph unicode="&#x2010;" horiz-adv-x="460" d="M24 390l11 99l400 18l-12 -99z" />
<glyph unicode="&#x2011;" horiz-adv-x="460" d="M24 390l11 99l400 18l-12 -99z" />
<glyph unicode="&#x2012;" horiz-adv-x="460" d="M24 390l11 99l400 18l-12 -99z" />
<glyph unicode="&#x2013;" horiz-adv-x="664" d="M24 401l17 103l598 6l-16 -102z" />
<glyph unicode="&#x2014;" horiz-adv-x="1162" d="M24 401l17 103l1096 6l-16 -102z" />
<glyph unicode="&#x2018;" horiz-adv-x="372" d="M21 971q0 151 150 265q68 56 148 95l33 -53q-90 -47 -126 -102q-37 -56 -37 -110q0 -2 6 -35q6 -35 34 -67t68 -53q-15 -55 -54 -82q-40 -28 -80 -28h-15q-77 9 -112 99q-13 32 -15 71z" />
<glyph unicode="&#x2019;" horiz-adv-x="371" d="M20 846q87 46 126 103t39 109q0 2 -6 35q-6 34 -36 67q-29 32 -67 53q16 56 54 83q40 28 81 28h13q79 -11 113 -100q14 -34 14 -70q1 -150 -148 -266q-65 -53 -150 -94z" />
<glyph unicode="&#x201a;" horiz-adv-x="377" d="M23 -251q88 46 126 102q37 55 37 111q0 12 -6 38t-39 63t-63 53q15 53 55 83q39 29 81 29h13q78 -11 111 -101q12 -32 14 -73q2 -34 -3 -54q-21 -112 -145 -209q-64 -52 -149 -94z" />
<glyph unicode="&#x201c;" horiz-adv-x="706" d="M21 971q0 151 150 265q68 56 148 95l33 -53q-90 -47 -126 -102q-37 -56 -37 -110q0 -2 6 -35q6 -35 34 -67t68 -53q-15 -55 -54 -82q-40 -28 -80 -28h-15q-77 9 -112 99q-13 32 -15 71zM357 971q0 151 148 265q67 55 149 95l32 -53q-88 -46 -125 -102q-38 -58 -38 -110 q0 -4 7 -35q8 -35 36 -67q30 -34 66 -53q-15 -55 -54 -82q-40 -28 -81 -28h-14q-78 9 -111 99q-13 32 -15 71z" />
<glyph unicode="&#x201d;" horiz-adv-x="698" d="M20 846q87 46 126 103t39 109q0 2 -6 35q-6 34 -36 67q-29 32 -67 53q16 56 54 83q40 28 81 28h13q79 -11 113 -100q14 -34 14 -70q1 -150 -148 -266q-65 -53 -150 -94zM348 846q89 47 126 103t37 109q0 2 -6 35q-6 36 -35 67q-28 31 -66 53q15 55 54 83q38 28 79 28h15 q78 -11 111 -100q13 -32 15 -70q0 -150 -149 -266q-65 -53 -148 -94z" />
<glyph unicode="&#x201e;" horiz-adv-x="749" d="M54 -254q92 24 137 72.5t45 101.5q0 44 -32.5 75.5t-83.5 31.5l-30 -3q-14 37 -14 63q0 55 39.5 88t82.5 33q28 0 57 -12t56 -35t44 -65t17 -96q0 -244 -295 -323zM372 -254q92 24 136.5 72.5t44.5 101.5q0 44 -32 75.5t-83 31.5l-30 -3q-15 39 -15 63q0 55 40 88t83 33 q28 0 57 -12t56.5 -35t44.5 -65t17 -96q0 -244 -296 -323z" />
<glyph unicode="&#x2022;" horiz-adv-x="494" d="M71 575q0 69 52 117.5t123 48.5q72 0 124.5 -49.5t52.5 -118.5q0 -74 -52.5 -126t-124.5 -52t-123.5 53t-51.5 127z" />
<glyph unicode="&#x2026;" horiz-adv-x="1301" d="M74 92q0 47 35 80t84 33q50 0 85 -33.5t35 -81.5q0 -50 -35 -85.5t-85 -35.5q-49 0 -84 36.5t-35 86.5zM519 92q0 47 35 80t84 33q50 0 85.5 -33.5t35.5 -81.5q0 -50 -35.5 -85.5t-85.5 -35.5q-49 0 -84 36.5t-35 86.5zM991 92q0 48 35 80.5t83 32.5q50 0 86 -33.5 t36 -81.5q0 -50 -36 -85.5t-86 -35.5q-49 0 -83.5 36t-34.5 87z" />
<glyph unicode="&#x202f;" horiz-adv-x="340" />
<glyph unicode="&#x2039;" horiz-adv-x="391" d="M19 440l2 20l316 344l36 -59l-209 -294l115 -314l-63 -60z" />
<glyph unicode="&#x203a;" horiz-adv-x="397" d="M18 137l215 314l-115 294l52 59l208 -344l-4 -20l-315 -363z" />
<glyph unicode="&#x205f;" horiz-adv-x="425" />
<glyph unicode="&#x20ac;" horiz-adv-x="1131" d="M17 476l31 103h76q10 66 11 69h-90l31 102h87q67 201 214 340q78 74 189 114q112 41 237 41q193 0 311 -100l-71 -325l-85 14l-14 214q-34 53 -81 78q-45 24 -128 24q-135 0 -234 -105t-141 -295h534l-42 -102h-510v-2q-7 -38 -7 -67h493l-42 -103h-453q6 -188 94 -291 q87 -102 234 -102q117 0 193 87l67 215l86 13l-5 -290q-96 -70 -191 -102q-90 -30 -211 -30q-217 0 -350 133t-133 363v4h-100z" />
<glyph unicode="&#x2122;" horiz-adv-x="1146" d="M140 1079l17 165h540l-37 -172l-62 7l-4 104h-122l-53 -427l81 -16l-13 -56h-273l10 53l79 22l52 424h-118l-37 -110zM625 684l11 53l78 22l84 412l-80 19l11 54h239l25 -87l61 -304l147 319l41 72h228l-11 -54l-78 -17l-28 -417l80 -16l-11 -56h-271l11 53l77 22l22 377 l-194 -428l-97 -9l-104 420l-73 -363l80 -16l-12 -56h-236z" />
<glyph unicode="&#x25fc;" horiz-adv-x="880" d="M0 0v880h880v-880h-880z" />
</font>
</defs>
</svg>
